Loading...
Error

Литургия Святого Иоанна Златоуста. Сергей Рахманинов (1988) lossless FLAC (Image+.cue) + mp3

Ответить на тему
Статистика раздачи
Скачали: [ 7 ]
   
 
Автор Сообщение

Academic Crack

Администратор

Стаж: 8 лет 5 месяцев

Сообщений: 2082

Russia

post 08-Дек-2008 05:03

[Цитировать] 

Литургия Святого Иоанна Златоуста. Сергей Рахманинов (1988) lossless FLAC (Image+.cue) + mp3

pic
Год выпуска: 1988
Жанр: Православные песнопения
Производитель диска: Gramzapis Company, 1990
Аудио кодек: FLAC
Тип рипа: image+.cue
Битрейт аудио: lossless + mp3 320 Kbps
Продолжительность: 53:48

Треклист:
1. Благослови, душе моя, Господа
2. Слава Отцу и Единородный
3. Во Царствии Твоем
4. Приидите, поклонимся
5. Господи, спаси благочестивыя и Святый Боже
6. Сугубая и последующия ектении
7. Иже херувимы
8. Верую
9. Милость мира
10. Тебе поем
11. Достойно есть
12. Отче наш
13. Хвалите Господа с небес
14. Благословен грядый и видехом свет истинный
15. Да исполнятся уста наша
16. Буди Имя Господне
17. Слава Отцу и Благочестивейшаго

Внимание!
Кто хочет скачать только лишь mp3, то выбираем соответствующую папку в торренте при добавлении закачки. Кто хочет скачать только lossless - то же самое. контент lossless и lossy идентичны. Кто хочет скачать все - качайте все.
Лог EAC
Exact Audio Copy V0.99 prebeta 4 from 23. January 2008

Отчёт EAC об извлечении, выполненном 8. декабря 2008, 2:59

Московский камерный хор / Литургия Св. Иоанна Златоуста

Дисковод: ASUS DRW-2014L1 Adapter: 2 ID: 0

Режим чтения : Достоверность
Использование точного потока : Да
Отключение кэша аудио : Нет
Использование указателей C2 : Нет

Комбинированное смещение чтения/записи : 0
Способность читать области Lead-in и Lead-out : Нет
Заполнение пропущенных сэмплов тишиной : Да
Удаление блоков с тишиной в начале и конце : Нет
При вычислениях CRC использовались нулевые сэмплы : Да
Интерфейс : Установленный внешний ASPI-интерфейс

Выходной формат : Внутренние WAV-операции
Формат сэмплов : 44.100 Гц; 16 бит; стерео

TOC извлечённого CD

Трек | Старт | Длительность | Начальный сектор | Конечный сектор
---------------------------------------------------------------------
1 | 0:00.12 | 4:05.50 | 12 | 18436
2 | 4:05.62 | 2:39.13 | 18437 | 30374
3 | 6:45.00 | 4:52.00 | 30375 | 52274
4 | 11:37.00 | 1:33.25 | 52275 | 59274
5 | 13:10.25 | 3:48.00 | 59275 | 76374
6 | 16:58.25 | 3:34.00 | 76375 | 92424
7 | 20:32.25 | 5:10.17 | 92425 | 115691
8 | 25:42.42 | 6:06.63 | 115692 | 143204
9 | 31:49.30 | 3:52.45 | 143205 | 160649
10 | 35:42.00 | 3:07.42 | 160650 | 174716
11 | 38:49.42 | 2:20.33 | 174717 | 185249
12 | 41:10.00 | 4:05.20 | 185250 | 203644
13 | 45:15.20 | 2:11.42 | 203645 | 213511
14 | 47:26.62 | 1:28.13 | 213512 | 220124
15 | 48:55.00 | 3:28.00 | 220125 | 235724
16 | 52:23.00 | 0:38.50 | 235725 | 238624
17 | 53:01.50 | 0:50.25 | 238625 | 242399

Характеристики диапазона извлечения и сообщения об ошибках

Выбранный диапазон

Имя файла C:\Documents and Settings\Academic Crack\Рабочий стол\Liturgiya.Rachmaninov\mskchoir.liturgy.og.Ioann.Zlatoust.wav

Пиковый уровень 77.1 %
Качество диапазона 99.9 %
CRC копии 19982C15
Копирование... OK

Ошибок не произошло

Конец отчёта
Сканы обложек и диска
picpicpicpicpic
Download

Войдите для скачивания торрент-файла

Как скачивать  ·   Правила трекера



Последний раз редактировалось: Academic Crack (2011-03-07 20:10), всего редактировалось 6 раз(а)
[Профиль]  [ЛС] 

y6ur

Стаж: 8 лет 5 месяцев

Сообщений: 11

Откуда: Москва

Russia

post 14-Дек-2008 00:59 (спустя 5 дней)

[Цитировать] 

БлагоДарю. Такого исполнения еще не встречал
[Профиль]  [ЛС] 

fed83

post 12-Янв-2009 20:31 (спустя 29 дней)

[Цитировать] 

спасибо!
 

mikhail18

post 16-Июл-2009 22:10 (спустя 6 месяцев)

[Цитировать] 

Всенощная Рахманинова - http://pravtor.ru/viewtopic.php?t=2906&spmode
 

СЕРГУЛЕТ

Стаж: 8 лет 3 месяца

Сообщений: 2639

Откуда: LA ROMANA

Dominicanrep

post 11-Июл-2011 07:45 (спустя 1 год 11 месяцев)

[Цитировать] 

Есть еще вот такие обложки и диск: picpicpicpic
[Профиль]  [ЛС] 

Евгений Насыров

Стаж: 5 лет 9 месяцев

Сообщений: 50

Kazakhstan

post 15-Янв-2012 07:54 (спустя 6 месяцев)

[Цитировать] 

Большое Спасибо
[Профиль]  [ЛС] 
Показать сообщения:    
Ответить на тему

Текущее время: 29-Май 02:20

Часовой пояс: GMT + 4



Вы не можете начинать темы
Вы не можете отвечать на сообщения
Вы не можете редактировать свои сообщения
Вы не можете удалять свои сообщения
Вы не можете голосовать в опросах
Вы не можете прикреплять файлы к сообщениям
Вы не можете скачивать файлы