Loading...
Error

(Церковная музыка Греции, Афона и Сербии (lossless)) "Служба молебного канона и избранные песнопения Св. Николаю Мирликийскому" (2CD) - 2006, APE (image + .cue), lossless

Ответить на тему
Статистика раздачи
   
 
Автор Сообщение

СЕРГУЛЕТ

Стаж: 12 лет

Сообщений: 2637

Откуда: LA ROMANA

Dominicanrep

post 04-Дек-2009 22:37

[Цитировать] 

"Служба молебного канона и избранные песнопения Св. Николаю Мирликийскому" (2CD)
pic
Страна: Греция
Жанр: Церковная музыка Греции, Афона и Сербии (lossless)
Год выпуска: 2006
Формат: APE (image + .cue)
Битрейт аудио: lossless
Продолжительность: 01:09:31/01:11:46
Наличие сканов: да
Трэклист:
CD1
01-07. Ακολουθία τής παρακλήσεως του Άγ. Νικολάου.
08. «Πολυχρόνιον» Μελετίου Συκεώτου. Ήχος πλ. α'
09. «Αξιόν έστιν» Χαρ. Παπανικολάου. Ήχος πλ. δ
10. «Όπου έπισκιάση», δοξαστικόν Πέτρου Φιλανθίδου. Ήχος πλ. α
11. «Κατευθυνθήτω» Ιακώβου Πρωτοψάλτου. Ήχος βαρύς
12. «Ποίοις ύμνωδιών», στιχηρόναίνων Ιεραρχών. Ήχος β'
13. «Αξιόν έστιν» Ανωνύμου. Ήχος α' έπτάφωνος
14. « Εξομολογείσθε», πολυέλεος Πέτρου Μπερεκέτου. Ήχος πλ. β' (νενανώ)
CD2
01. «Άγιος ό Θεός», καί «Δύναμις» Καλογήριυ. Ήχος πλ. α
02. Ανοιξαντάρια συντετμημένα Χουρμουζίου Χαρτοφύλακος. Ήχος πλ. δ
03. «Παναγία Δέσποινα» ίερομ. Δανιήλ Δανιηλίδου. «Μή καταπιστεύσης με»,
«Μεταβολή των θλιβομένων» μον. Μελετίου Συκεώτου. Ήχος λέγετος
04. «Αξιόν έστιν» Μισαήλ Μισαηλίδου. Ήχος μικτός βαούς έναρμόνιος
05. «Ο Άγγελος έβόα», καταβασίχάργή Δημητοίου Κυφιώτου. Ήχος α'
06. Πασαπνοάριον αργόν Ιακώβου Πρωτοψάλτου. Ήχος πλ. δ
07. «Πλούσιοι έπτώχευσαν» ίερομ. Δανιήλ Δανιηλίδου. Ήχος πλ. α'
08. «Δεύτε τη Πανάγνω», Δόξα πολυελέου Νικηφόρου Ηθικού. Ήχος πλ. β'
09. «Τεριρέμ», κράτημα Νικολάου Σμύρνης. Ήχος πλ. β'
10. «Εξεπλήττετο», Πέτρου Φιλανθίδου. Ήχος βαρύς έναρμόνιος
11. «Άξιόν έστιν» Ανωνύμου. Ήχος πλ. β' έπτάφωνος
12. «Επί σοί χαίρει» Ξένου του Κορώνη. Ήχος πλ. δ'

EAC log
Exact Audio Copy V0.99 prebeta 5 from 4. May 2009

Отчёт EAC об извлечении, выполненном 3. декабря 2009, 22:36

Поёт молодёжный хор / Служба молебного канона и избранные песнопения Св. Николаю Мирликийскому-1

Дисковод: ASUS BC-1205PT Adapter: 1 ID: 0

Режим чтения : Достоверность
Использование точного потока : Да
Отключение кэша аудио : Да
Использование указателей C2 : Нет

Коррекция смещения при чтении : 667
Способность читать области Lead-in и Lead-out : Нет
Заполнение пропущенных сэмплов тишиной : Да
Удаление блоков с тишиной в начале и конце : Нет
При вычислениях CRC использовались нулевые сэмплы : Да
Интерфейс : Встроенный Win32-интерфейс для Win NT/2000

Выходной формат : Внутренние WAV-операции
Формат сэмплов : 44.100 Гц; 16 бит; стерео

TOC извлечённого CD

Трек | Старт | Длительность | Начальный сектор | Конечный сектор
---------------------------------------------------------------------
1 | 0:00.00 | 1:26.55 | 0 | 6504
2 | 1:26.55 | 4:09.51 | 6505 | 25230
3 | 5:36.31 | 9:40.03 | 25231 | 68733
4 | 15:16.34 | 10:22.17 | 68734 | 115400
5 | 25:38.51 | 1:44.46 | 115401 | 123246
6 | 27:23.22 | 9:54.27 | 123247 | 167823
7 | 37:17.49 | 6:46.52 | 167824 | 198325
8 | 44:04.26 | 1:39.18 | 198326 | 205768
9 | 45:43.44 | 3:18.71 | 205769 | 220689
10 | 49:02.40 | 5:27.29 | 220690 | 245243
11 | 54:29.69 | 2:34.02 | 245244 | 256795
12 | 57:03.71 | 2:47.65 | 256796 | 269385
13 | 59:51.61 | 3:33.72 | 269386 | 285432
14 | 63:25.58 | 6:03.73 | 285433 | 312730

Характеристики диапазона извлечения и сообщения об ошибках

Выбранный диапазон

Имя файла C:\Поёт молодёжный хор - Служба молебного канона и избранные песнопения Св. Николаю Мирликийскому-1.wav

Пиковый уровень 100.0 %
Качество диапазона 99.9 %
CRC копии 4AFE24B0
Копирование... OK

Ошибок не произошло

AccurateRip: сводка
Трек 1 нет в базе данных
Трек 2 нет в базе данных
Трек 3 нет в базе данных
Трек 4 нет в базе данных
Трек 5 нет в базе данных
Трек 6 нет в базе данных
Трек 7 нет в базе данных
Трек 8 нет в базе данных
Трек 9 нет в базе данных
Трек 10 нет в базе данных
Трек 11 нет в базе данных
Трек 12 нет в базе данных
Трек 13 нет в базе данных
Трек 14 нет в базе данных
Ни одного трека нет в базе AccurateRip

Конец отчёта

CD2.
Exact Audio Copy V0.99 prebeta 5 from 4. May 2009

Отчёт EAC об извлечении, выполненном 3. декабря 2009, 23:44

Поёт молодёжный хор / Служба молебного канона и избранные песнопения Николаю Мирликийскому-2

Дисковод: ASUS BC-1205PT Adapter: 1 ID: 0

Режим чтения : Достоверность
Использование точного потока : Да
Отключение кэша аудио : Да
Использование указателей C2 : Нет

Коррекция смещения при чтении : 667
Способность читать области Lead-in и Lead-out : Нет
Заполнение пропущенных сэмплов тишиной : Да
Удаление блоков с тишиной в начале и конце : Нет
При вычислениях CRC использовались нулевые сэмплы : Да
Интерфейс : Встроенный Win32-интерфейс для Win NT/2000

Выходной формат : Внутренние WAV-операции
Формат сэмплов : 44.100 Гц; 16 бит; стерео

TOC извлечённого CD

Трек | Старт | Длительность | Начальный сектор | Конечный сектор
---------------------------------------------------------------------
1 | 0:00.00 | 7:33.14 | 0 | 33988
2 | 7:33.14 | 8:25.14 | 33989 | 71877
3 | 15:58.28 | 5:15.35 | 71878 | 95537
4 | 21:13.63 | 3:06.11 | 95538 | 109498
5 | 24:19.74 | 4:01.64 | 109499 | 127637
6 | 28:21.63 | 2:24.25 | 127638 | 138462
7 | 30:46.13 | 1:48.19 | 138463 | 146581
8 | 32:34.32 | 4:35.62 | 146582 | 167268
9 | 37:10.19 | 4:50.64 | 167269 | 189082
10 | 42:01.08 | 4:59.22 | 189083 | 211529
11 | 47:00.30 | 2:59.36 | 211530 | 224990
12 | 49:59.66 | 21:44.35 | 224991 | 322825

Характеристики диапазона извлечения и сообщения об ошибках

Выбранный диапазон

Имя файла C:\Поёт молодёжный хор - Служба молебного канона и избранные песнопения Николаю Мирликийскому-2.wav

Пиковый уровень 100.0 %
Качество диапазона 100.0 %
CRC копии 6A841F71
Копирование... OK

Ошибок не произошло

AccurateRip: сводка
Трек 1 нет в базе данных
Трек 2 нет в базе данных
Трек 3 нет в базе данных
Трек 4 нет в базе данных
Трек 5 нет в базе данных
Трек 6 нет в базе данных
Трек 7 нет в базе данных
Трек 8 нет в базе данных
Трек 9 нет в базе данных
Трек 10 нет в базе данных
Трек 11 нет в базе данных
Трек 12 нет в базе данных
Ни одного трека нет в базе AccurateRip

Конец отчёта

Обложки и содержание
pic pic pic

Дополнительная информация
Собор св. Николая, Каламарья, Греция.
Поёт молодёжный хор.

Download

Войдите на сайт, чтобы увидеть полную информацию.

Как скачивать  ·   Правила трекера

[Профиль]  [ЛС] 

vironika

Стаж: 10 лет

Сообщений: 15

post 28-Дек-2011 21:27 (спустя 2 года)

[Цитировать] 

...спасибо
[Профиль]  [ЛС] 

vika010288

Стаж: 12 лет

Сообщений: 456

Georgia

post 29-Дек-2011 22:02 (спустя 1 день)

[Цитировать] 

Спаси Господи!
[Профиль]  [ЛС] 
Показать сообщения:    
Ответить на тему

Текущее время: 06-Авг 00:55

Часовой пояс: GMT + 4



Вы не можете начинать темы
Вы не можете отвечать на сообщения
Вы не можете редактировать свои сообщения
Вы не можете удалять свои сообщения
Вы не можете голосовать в опросах
Вы не можете прикреплять файлы к сообщениям
Вы не можете скачивать файлы