Loading...
Error

(Церковная музыка и церковные хоры (lossless).) "Духовные псалмопения". Свято-Успенский мужской монастырь. Ущелье Мариамполь. г. Бахчисарай. Поет братия монастыря. - 2006, APE (image + .cue), lossless

Ответить на тему
Статистика раздачи
   
 
Автор Сообщение

СЕРГУЛЕТ

Стаж: 8 лет 7 месяцев

Сообщений: 2640

Откуда: LA ROMANA

Dominicanrep

post 20-Сен-2011 22:44

[Цитировать] 

"Духовные псалмопения". Свято-Успенский мужской монастырь. Ущелье Мариамполь. г. Бахчисарай. Поет братия монастыря.

pic
Страна: Украина.
Жанр: Церковная музыка и церковные хоры (lossless).
Год выпуска: 2006
Формат: APE (image + .cue)
Битрейт аудио: lossless
Продолжительность: 00:53:56
Содержание+Обложки
picpicpic
EAC log
Exact Audio Copy V1.0 beta 2 from 29. April 2011

Отчёт EAC об извлечении, выполненном 20. сентября 2011, 16:20

Братия монастыря / Духовные псалмопения

Дисковод: ASUS DRW-2014L1T Adapter: 2 ID: 1

Режим чтения : Достоверность
Использование точного потока : Да
Отключение кэша аудио : Да
Использование указателей C2 : Нет

Коррекция смещения при чтении : 6
Способность читать области Lead-in и Lead-out : Нет
Заполнение пропущенных сэмплов тишиной : Да
Удаление блоков с тишиной в начале и конце : Нет
При вычислениях CRC использовались нулевые сэмплы : Да
Интерфейс : Встроенный Win32-интерфейс для Win NT/2000

Выходной формат : Внутренние WAV-операции
Формат сэмплов : 44.100 Гц; 16 бит; стерео

TOC извлечённого CD

Трек | Старт | Длительность | Начальный сектор | Конечный сектор
---------------------------------------------------------------------
1 | 0:00.00 | 1:08.02 | 0 | 5101
2 | 1:08.02 | 2:47.03 | 5102 | 17629
3 | 3:55.05 | 2:34.63 | 17630 | 29242
4 | 6:29.68 | 16:37.39 | 29243 | 104056
5 | 23:07.32 | 8:14.62 | 104057 | 141168
6 | 31:22.19 | 4:06.24 | 141169 | 159642
7 | 35:28.43 | 2:10.59 | 159643 | 169451
8 | 37:39.27 | 4:33.36 | 169452 | 189962
9 | 42:12.63 | 3:42.35 | 189963 | 206647

Характеристики диапазона извлечения и сообщения об ошибках

Выбранный диапазон

Имя файла C:\Братия монастыря - Духовные псалмопения.wav

Пиковый уровень 95.7 %
Скорость извлечения 1.0 X
Качество диапазона 99.4 %
CRC копии F819D9CC
Копирование... OK

Ошибок не произошло

Конец отчёта
Download

Войдите на сайт, чтобы увидеть полную информацию.

Как скачивать  ·   Правила трекера



Последний раз редактировалось: СЕРГУЛЕТ (2011-09-22 09:44), всего редактировалось 1 раз
[Профиль]  [ЛС] 

Cepera032

Стаж: 6 лет 10 месяцев

Сообщений: 9

post 21-Сен-2011 12:08 (спустя 13 часов)

[Цитировать] 

Спасибо
[Профиль]  [ЛС] 

Kyz

post 26-Дек-2011 19:50 (спустя 3 месяца 5 дней)

[Цитировать] 

спасибо
 

SKIMEN77

Стаж: 5 лет 10 месяцев

Сообщений: 70

Откуда: ВОРОНЕЖ

Russia

post 17-Мар-2012 11:27 (спустя 2 месяца 21 день)

[Цитировать] 

спасибо, жалко что мало(
[Профиль]  [ЛС] 

Николай77

Стаж: 5 лет 9 месяцев

Сообщений: 23

Ukraine

post 23-Мар-2012 21:43 (спустя 6 дней)

[Цитировать] 

Спаси Господи!Благодарю!
[Профиль]  [ЛС] 

Виктор030864

Стаж: 4 года 3 месяца

Сообщений: 1

post 28-Окт-2014 10:34 (спустя 2 года 7 месяцев)

[Цитировать] 

Спасибо.
[Профиль]  [ЛС] 

paster

Стаж: 6 лет 7 месяцев

Сообщений: 1

Ukraine

post 17-Май-2016 16:28 (спустя 1 год 6 месяцев)

[Цитировать] 

Спаси Господи! Отче Силуане с братией молите Бога о нас грешных!
[Профиль]  [ЛС] 

mangealic

Стаж: 3 года 1 месяц

Сообщений: 23

post 25-Июн-2016 08:52 (спустя 1 месяц 7 дней)

[Цитировать] 

Спасибо.
[Профиль]  [ЛС] 

AnjaZA

Стаж: 4 года

Сообщений: 17

Russia

post 24-Янв-2017 20:29 (спустя 6 месяцев)

[Цитировать] 

Спасибо
[Профиль]  [ЛС] 
Показать сообщения:    
Ответить на тему

Текущее время: 22-Сен 01:07

Часовой пояс: GMT + 4



Вы не можете начинать темы
Вы не можете отвечать на сообщения
Вы не можете редактировать свои сообщения
Вы не можете удалять свои сообщения
Вы не можете голосовать в опросах
Вы не можете прикреплять файлы к сообщениям
Вы не можете скачивать файлы