Loading...
Error

(Акафисты, каноны, молебны (lossless).) Акафисты Преподобным Кириллу и Ферапонту Белозерским Чудотворцам. (2CD). - 2010, APE (image + .cue), lossless

Ответить на тему
Статистика раздачи
   
 
Автор Сообщение

СЕРГУЛЕТ

Стаж: 8 лет 7 месяцев

Сообщений: 2640

Откуда: LA ROMANA

Dominicanrep

post 05-Ноя-2011 22:52

[Цитировать] 

Акафисты Преподобным Кириллу и Ферапонту Белозерским Чудотворцам. (2CD).

pic
Страна: Россия. Издательство Московской Патриархии.
Жанр: Акафисты, каноны, молебны (lossless).
Год выпуска: 2010
Формат: APE (image + .cue)
Битрейт аудио: lossless
Продолжительность: 00:43:28+00:38:17
Содержание+Обложки
picpic
EAC log
Exact Audio Copy V1.0 beta 2 from 29. April 2011

Отчёт EAC об извлечении, выполненном 5. ноября 2011, 21:18

Хор певчих Московских храмов / Акафист преподобному Кириллу

Дисковод: ASUS DRW-2014L1T Adapter: 2 ID: 1

Режим чтения : Достоверность
Использование точного потока : Да
Отключение кэша аудио : Да
Использование указателей C2 : Нет

Коррекция смещения при чтении : 6
Способность читать области Lead-in и Lead-out : Нет
Заполнение пропущенных сэмплов тишиной : Да
Удаление блоков с тишиной в начале и конце : Нет
При вычислениях CRC использовались нулевые сэмплы : Да
Интерфейс : Встроенный Win32-интерфейс для Win NT/2000

Выходной формат : Внутренние WAV-операции
Формат сэмплов : 44.100 Гц; 16 бит; стерео

TOC извлечённого CD

Трек | Старт | Длительность | Начальный сектор | Конечный сектор
---------------------------------------------------------------------
1 | 0:00.00 | 1:15.66 | 0 | 5690
2 | 1:15.66 | 38:23.18 | 5691 | 178433
3 | 39:39.09 | 3:49.61 | 178434 | 195669

Характеристики диапазона извлечения и сообщения об ошибках

Выбранный диапазон

Имя файла C:\Хор певчих Московских храмов - Акафист преподобному Кириллу.wav

Пиковый уровень 88.3 %
Скорость извлечения 7.5 X
Качество диапазона 100.0 %
CRC копии 638B7D33
Копирование... OK

Ошибок не произошло

Конец отчёта

==== Контрольная сумма отчёта 4EAB873878F117348C3E4E79892A6F81DB50371D8C63A222525A0399A7E2C192 ====

cd2.
Exact Audio Copy V1.0 beta 2 from 29. April 2011

Отчёт EAC об извлечении, выполненном 5. ноября 2011, 21:25

Хор певчих Московских храмов / Акафист Ферапонту

Дисковод: ASUS DRW-2014L1T Adapter: 2 ID: 1

Режим чтения : Достоверность
Использование точного потока : Да
Отключение кэша аудио : Да
Использование указателей C2 : Нет

Коррекция смещения при чтении : 6
Способность читать области Lead-in и Lead-out : Нет
Заполнение пропущенных сэмплов тишиной : Да
Удаление блоков с тишиной в начале и конце : Нет
При вычислениях CRC использовались нулевые сэмплы : Да
Интерфейс : Встроенный Win32-интерфейс для Win NT/2000

Выходной формат : Внутренние WAV-операции
Формат сэмплов : 44.100 Гц; 16 бит; стерео

TOC извлечённого CD

Трек | Старт | Длительность | Начальный сектор | Конечный сектор
---------------------------------------------------------------------
1 | 0:00.00 | 1:15.66 | 0 | 5690
2 | 1:15.66 | 32:44.60 | 5691 | 153050
3 | 34:00.51 | 4:16.43 | 153051 | 172293

Характеристики диапазона извлечения и сообщения об ошибках

Выбранный диапазон

Имя файла C:\Хор певчих Московских храмов - Акафист Ферапонту.wav

Пиковый уровень 100.0 %
Скорость извлечения 7.2 X
Качество диапазона 100.0 %
CRC копии 2D0967A1
Копирование... OK

Ошибок не произошло

Конец отчёта

==== Контрольная сумма отчёта 01D706E0C9C6B9E1C339356C3F2263F82735483E886C8B4CC2CB8891704F6AD4 ====
Download

Войдите на сайт, чтобы увидеть полную информацию.

Как скачивать  ·   Правила трекера

[Профиль]  [ЛС] 

maxvell

Стаж: 6 лет 11 месяцев

Сообщений: 76

Ukraine

post 02-Фев-2012 02:04 (спустя 2 месяца 26 дней)

[Цитировать] 

Спасибо
[Профиль]  [ЛС] 
Показать сообщения:    
Ответить на тему

Текущее время: 23-Сен 13:21

Часовой пояс: GMT + 4



Вы не можете начинать темы
Вы не можете отвечать на сообщения
Вы не можете редактировать свои сообщения
Вы не можете удалять свои сообщения
Вы не можете голосовать в опросах
Вы не можете прикреплять файлы к сообщениям
Вы не можете скачивать файлы