Loading...
Error

Молебен с акафистом Божией Матери пред чудотворной иконой Ея "Умягчение злых сердец" - 2004, FLAC (image + .cue), lossless

Ответить на тему
Статистика раздачи
Скачали: [ 4 ]
   
 
Автор Сообщение

andrejpushkaryov

Модератор

Стаж: 8 лет 1 месяц

Сообщений: 1002

Откуда: Ижевск

Russia

post 17-Окт-2009 12:35

[Цитировать] 

Молебен с акафистом Божией Матери пред чудотворной иконой Ея "Умягчение злых сердец"

pic
Страна: Беларусь
Жанр: акафист
Год выпуска: 2004
Формат: FLAC (image + .cue)
Битрейт аудио: lossless
Продолжительность: 55 минут 14 сек
Трэклист:
1. Благословен Бог наш...
2. Царю Небесный...
3. Бог Господь и явися нам...
4. Тропарь Спасителю "О умножении любви и искоренении ненависти и всякой злобы"
5. Тропарь Спасителю "О ненавидящих и обидящих нас"
6. Тропарь Божией Матери пред чудотворной иконой Ея "Умягчение злых сердец"
7. Слава, и ныне. Кондак Спасителю "О умножении любви и искоренении ненависти и всякой злобы"
8. Запевы
9. Слава, и ныне. Избави от бед...
10. Малая ектения
11. Акафист Божией Матери пред чудотворной иконой Ея "Умягчение злых сердец"
12. Прокимен, гл. 1
13. Аминь. Всякое дыхание...Чтение Евангелия
14. Не имамы иныя помощи...
15. Просительная ектения
16. Молитва ко Пресвятой Богородице
17. Величание
18. Отпуст
19. Радуйся, Благодатная...
Дополнительная информация: Свято-Елисаветинский монастырь, 2004 год
Студия во имя Св. исповедника Иоанна Воина. Поют сестры Минского Свято-Елисаветинского монастыря. Служит протоиерей Андрей Лемещонок
EAC log
Exact Audio Copy V0.99 prebeta 5 from 4. May 2009

Отчёт EAC об извлечении, выполненном 17. октября 2009, 12:31

Unknown Artist / Unknown Title

Дисковод: _NEC DVD_RW ND-4570A Adapter: 0 ID: 1

Режим чтения : Достоверность
Использование точного потока : Да
Отключение кэша аудио : Нет
Использование указателей C2 : Да

Комбинированное смещение чтения/записи : 0
Способность читать области Lead-in и Lead-out : Нет
Заполнение пропущенных сэмплов тишиной : Да
Удаление блоков с тишиной в начале и конце : Нет
При вычислениях CRC использовались нулевые сэмплы : Да
Интерфейс : Установленный внешний ASPI-интерфейс

Выходной формат : Внутренние WAV-операции
Формат сэмплов : 44.100 Гц; 16 бит; стерео

TOC извлечённого CD

Трек | Старт | Длительность | Начальный сектор | Конечный сектор
---------------------------------------------------------------------
1 | 0:00.00 | 0:21.73 | 0 | 1647
2 | 0:21.73 | 0:29.36 | 1648 | 3858
3 | 0:51.34 | 1:08.59 | 3859 | 9017
4 | 2:00.18 | 0:23.42 | 9018 | 10784
5 | 2:23.60 | 0:36.15 | 10785 | 13499
6 | 3:00.00 | 1:34.62 | 13500 | 20611
7 | 4:34.62 | 0:40.28 | 20612 | 23639
8 | 5:15.15 | 1:05.61 | 23640 | 28575
9 | 6:21.01 | 1:14.00 | 28576 | 34125
10 | 7:35.01 | 5:27.69 | 34126 | 58719
11 | 13:02.70 | 28:02.00 | 58720 | 184869
12 | 41:04.70 | 0:50.55 | 184870 | 188674
13 | 41:55.50 | 2:00.30 | 188675 | 197704
14 | 43:56.05 | 0:23.49 | 197705 | 199478
15 | 44:19.54 | 5:52.50 | 199479 | 225928
16 | 50:12.29 | 1:09.72 | 225929 | 231175
17 | 51:22.26 | 0:41.62 | 231176 | 234312
18 | 52:04.13 | 1:14.03 | 234313 | 239865
19 | 53:18.16 | 1:56.50 | 239866 | 248615

Характеристики диапазона извлечения и сообщения об ошибках

Выбранный диапазон

Имя файла F:\Молебен с акафистом\Unknown Artist - Unknown Title.wav

Пиковый уровень 97.7 %
Качество диапазона 100.0 %
CRC копии 9DE2B01B
Копирование... OK

Ошибок не произошло

Конец отчёта
Download

Войдите для скачивания торрент-файла

Как скачивать  ·   Правила трекера



Последний раз редактировалось: andrejpushkaryov (2013-09-17 16:27), всего редактировалось 2 раз(а)
[Профиль]  [ЛС] 

dik_777

post 11-Янв-2011 02:35 (спустя 1 год 2 месяца)

[Цитировать] 

спасибо большое
 

evilmarx

post 04-Июн-2011 12:02 (спустя 4 месяца 24 дня)

[Цитировать] 

Большое спасибо!
 

Lyudmila

post 03-Ноя-2011 01:37 (спустя 4 месяца 28 дней)

[Цитировать] 

спасибо
 

Dezor

post 02-Фев-2012 01:40 (спустя 2 месяца 29 дней)

[Цитировать] 

Благодарю!
 

Кириченко Денис

Стаж: 5 лет 6 месяцев

Сообщений: 93

Kazakhstan

post 22-Мар-2012 15:27 (спустя 1 месяц 20 дней)

[Цитировать] 

Спасибо!
[Профиль]  [ЛС] 

Людмила1967

Стаж: 4 года 8 месяцев

Сообщений: 6

Kazakhstan

post 19-Сен-2012 13:42 (спустя 5 месяцев 27 дней)

[Цитировать] 

Спаси Господи!
[Профиль]  [ЛС] 
Показать сообщения:    
Ответить на тему

Текущее время: 28-Май 12:23

Часовой пояс: GMT + 4



Вы не можете начинать темы
Вы не можете отвечать на сообщения
Вы не можете редактировать свои сообщения
Вы не можете удалять свои сообщения
Вы не можете голосовать в опросах
Вы не можете прикреплять файлы к сообщениям
Вы не можете скачивать файлы