Loading...
Error

(Церковная музыка и церковные хоры (lossless).) "Литургиjа 2". Литургия на Введение Пресвятой Богородицы. Братский хор монастыря Хиландар. - 2001, APE (image + .cue), lossless

Ответить на тему
Статистика раздачи
Скачали: [ 2 ]
   
 
Автор Сообщение

СЕРГУЛЕТ

Стаж: 8 лет 3 месяца

Сообщений: 2639

Откуда: LA ROMANA

Dominicanrep

post 16-Окт-2009 18:19

[Цитировать] 

"Литургиjа 2". Литургия на Введение Пресвятой Богородицы. Братский хор монастыря Хиландар.

pic
Страна: Греция. Монастырь Хиландар. Святая Гора Афон.
Жанр: Церковная музыка и церковные хоры (lossless).
Год выпуска: 2001
Формат: APE (image + .cue)
Битрейт аудио: lossless
Продолжительность: 00:58:09
Содержание+Обложки
picpicpic
Дополнительная информация: Запись 1999 года.
EAC log
Exact Audio Copy V0.99 prebeta 5 from 4. May 2009

Отчёт EAC об извлечении, выполненном 16. октября 2009, 8:16

Monastery Hilandar / Consonances of the Hilandar Praise 5

Дисковод: ASUS BC-1205PT Adapter: 1 ID: 0

Режим чтения : Достоверность
Использование точного потока : Да
Отключение кэша аудио : Да
Использование указателей C2 : Нет

Коррекция смещения при чтении : 667
Способность читать области Lead-in и Lead-out : Нет
Заполнение пропущенных сэмплов тишиной : Да
Удаление блоков с тишиной в начале и конце : Нет
При вычислениях CRC использовались нулевые сэмплы : Да
Интерфейс : Встроенный Win32-интерфейс для Win NT/2000

Выходной формат : Внутренние WAV-операции
Формат сэмплов : 44.100 Гц; 16 бит; стерео

TOC извлечённого CD

Трек | Старт | Длительность | Начальный сектор | Конечный сектор
---------------------------------------------------------------------
1 | 0:00.00 | 14:58.43 | 0 | 67392
2 | 14:58.43 | 1:47.68 | 67393 | 75485
3 | 16:46.36 | 3:01.39 | 75486 | 89099
4 | 19:48.00 | 4:48.16 | 89100 | 110715
5 | 24:36.16 | 4:25.70 | 110716 | 130660
6 | 29:02.11 | 1:15.04 | 130661 | 136289
7 | 30:17.15 | 6:43.40 | 136290 | 166554
8 | 37:00.55 | 9:10.32 | 166555 | 207836
9 | 46:11.12 | 6:56.74 | 207837 | 239110
10 | 53:08.11 | 4:58.64 | 239111 | 261524

Характеристики диапазона извлечения и сообщения об ошибках

Выбранный диапазон

Имя файла C:\Monastery Hilandar - Consonances of the Hilandar Praise 5.wav

Пиковый уровень 99.6 %
Качество диапазона 100.0 %
CRC копии 9D11034E
Копирование... OK

Ошибок не произошло
Конец отчёта
Download

Войдите для скачивания торрент-файла

Как скачивать  ·   Правила трекера



Последний раз редактировалось: СЕРГУЛЕТ (2010-03-14 17:17), всего редактировалось 2 раз(а)
[Профиль]  [ЛС] 

rakshaj

Стаж: 7 лет 9 месяцев

Сообщений: 33

Откуда: Эрзянь Мастор

Ussr

post 03-Дек-2009 19:12 (спустя 1 месяц 18 дней)

[Цитировать] 

Поддержите кто-нибудь раздачу, перед праздником!

_________________
Христос Вельмесь!
[Профиль]  [ЛС] 

igorek23

Стаж: 6 лет 10 месяцев

Сообщений: 12

Ukraine

post 01-Сен-2010 23:00 (спустя 8 месяцев)

[Цитировать] 

Спаси Вас Господи за такую раздачу
[Профиль]  [ЛС] 

Татьяна Малена

post 30-Сен-2010 13:00 (спустя 28 дней)

[Цитировать] 

Spasi Gospodi
 

mrixz

post 28-Окт-2010 18:15 (спустя 28 дней)

[Цитировать] 

Cлава Богу нашему
 

vika010288

Стаж: 7 лет 11 месяцев

Сообщений: 459

Georgia

post 17-Окт-2011 22:35 (спустя 11 месяцев)

[Цитировать] 

Бог впомощ!
[Профиль]  [ЛС] 

Михаил Юрин

Стаж: 2 месяца 10 дней

Сообщений: 3

Russia

post 08-Апр-2017 06:35 (спустя 5 лет 5 месяцев)

[Цитировать] 

Вы не могли бы встать на раздачу?
[Профиль]  [ЛС] 
Показать сообщения:    
Ответить на тему

Текущее время: 30-Май 02:37

Часовой пояс: GMT + 4



Вы не можете начинать темы
Вы не можете отвечать на сообщения
Вы не можете редактировать свои сообщения
Вы не можете удалять свои сообщения
Вы не можете голосовать в опросах
Вы не можете прикреплять файлы к сообщениям
Вы не можете скачивать файлы