Loading...
Error

(Акафисты, каноны, молебны (lossless).) Акафист святителю Спиридону Тримифунтскому чудотворцу+ слово Блаженнейшего Митрополита Владимира о святителе Спиридоне. - 2010, APE (image + .cue), lossless

Ответить на тему
Статистика раздачи
   
 
Автор Сообщение

СЕРГУЛЕТ

Стаж: 8 лет 7 месяцев

Сообщений: 2640

Откуда: LA ROMANA

Dominicanrep

post 18-Июн-2011 11:37

[Цитировать] 

Акафист святителю Спиридону Тримифунтскому чудотворцу+ слово Блаженнейшего Митрополита Владимира о святителе Спиридоне.

pic
Страна: Украина.
Жанр: Акафисты, каноны, молебны (lossless).
Год выпуска: 2010
Формат: APE (image + .cue)
Битрейт аудио: lossless
Продолжительность: 00:56:51

Ансамбль церковных певчих "Сретение".
Обложки+Содержание
picpic
EAC log
Exact Audio Copy V0.99 prebeta 5 from 4. May 2009

Отчёт EAC об извлечении, выполненном 17. июня 2011, 23:46

Ансамбль Сретение / Акафист свт. Спиридону Тримифунтскому.

Дисковод: ASUS DRW-2014L1T Adapter: 2 ID: 1

Режим чтения : Достоверность
Использование точного потока : Да
Отключение кэша аудио : Да
Использование указателей C2 : Нет

Коррекция смещения при чтении : 6
Способность читать области Lead-in и Lead-out : Нет
Заполнение пропущенных сэмплов тишиной : Да
Удаление блоков с тишиной в начале и конце : Нет
При вычислениях CRC использовались нулевые сэмплы : Да
Интерфейс : Встроенный Win32-интерфейс для Win NT/2000

Выходной формат : Внутренние WAV-операции
Формат сэмплов : 44.100 Гц; 16 бит; стерео

TOC извлечённого CD

Трек | Старт | Длительность | Начальный сектор | Конечный сектор
---------------------------------------------------------------------
1 | 0:00.00 | 1:08.25 | 0 | 5124
2 | 1:08.25 | 1:04.25 | 5125 | 9949
3 | 2:12.50 | 1:52.73 | 9950 | 18422
4 | 4:05.48 | 0:40.58 | 18423 | 21480
5 | 4:46.31 | 2:10.42 | 21481 | 31272
6 | 6:56.73 | 0:45.25 | 31273 | 34672
7 | 7:42.23 | 2:26.73 | 34673 | 45695
8 | 10:09.21 | 0:38.07 | 45696 | 48552
9 | 10:47.28 | 2:06.43 | 48553 | 58045
10 | 12:53.71 | 0:46.47 | 58046 | 61542
11 | 13:40.43 | 2:03.45 | 61543 | 70812
12 | 15:44.13 | 0:41.23 | 70813 | 73910
13 | 16:25.36 | 2:16.03 | 73911 | 84113
14 | 18:41.39 | 0:45.32 | 84114 | 87520
15 | 19:26.71 | 2:15.14 | 87521 | 97659
16 | 21:42.10 | 0:51.58 | 97660 | 101542
17 | 22:33.68 | 2:08.66 | 101543 | 111208
18 | 24:42.59 | 0:57.15 | 111209 | 115498
19 | 25:39.74 | 2:14.11 | 115499 | 125559
20 | 27:54.10 | 0:39.36 | 125560 | 128520
21 | 28:33.46 | 2:20.33 | 128521 | 139053
22 | 30:54.04 | 0:42.38 | 139054 | 142241
23 | 31:36.42 | 2:17.12 | 142242 | 152528
24 | 33:53.54 | 0:51.67 | 152529 | 156420
25 | 34:45.46 | 2:33.25 | 156421 | 167920
26 | 37:18.71 | 1:45.29 | 167921 | 175824
27 | 39:04.25 | 1:02.72 | 175825 | 180546
28 | 40:07.22 | 2:04.52 | 180547 | 189898
29 | 42:11.74 | 1:05.39 | 189899 | 194812
30 | 43:17.38 | 2:31.58 | 194813 | 206195
31 | 45:49.21 | 1:06.40 | 206196 | 211185
32 | 46:55.61 | 9:55.63 | 211186 | 255873

Характеристики диапазона извлечения и сообщения об ошибках

Выбранный диапазон

Имя файла C:\Users\Сергей\Desktop\Ансамбль Сретение - Акафист свт. Спиридону Тримифунтскому..wav

Пиковый уровень 69.4 %
Качество диапазона 100.0 %
CRC копии 1AC4A267
Копирование... OK

Ошибок не произошло



Конец отчёта
Download

Войдите на сайт, чтобы увидеть полную информацию.

Как скачивать  ·   Правила трекера

[Профиль]  [ЛС] 

vironika

Стаж: 6 лет 4 месяца

Сообщений: 15

post 11-Сен-2011 15:36 (спустя 2 месяца 23 дня)

[Цитировать] 

...хотелось бы скачать... Smile
[Профиль]  [ЛС] 

vironika

Стаж: 6 лет 4 месяца

Сообщений: 15

post 30-Апр-2012 14:07 (спустя 7 месяцев)

[Цитировать] 

... спасибо! скачалось...
[Профиль]  [ЛС] 

gavrik.s

Стаж: 5 лет 8 месяцев

Сообщений: 85

post 01-Июн-2012 19:03 (спустя 1 месяц 1 день)

[Цитировать] 

СЕРГУЛЕТ
Посидируйте , пожалуйста ?
[Профиль]  [ЛС] 

gavrik.s

Стаж: 5 лет 8 месяцев

Сообщений: 85

post 03-Июн-2012 15:13 (спустя 1 день 20 часов)

[Цитировать] 

Всем спасибо за поддержку!Скачалось!
[Профиль]  [ЛС] 

geo902

Стаж: 4 года 11 месяцев

Сообщений: 12

Откуда: москва

Russia

post 06-Май-2013 21:47 (спустя 11 месяцев)

[Цитировать] 

Спасибо
[Профиль]  [ЛС] 
Показать сообщения:    
Ответить на тему

Текущее время: 24-Сен 16:16

Часовой пояс: GMT + 4



Вы не можете начинать темы
Вы не можете отвечать на сообщения
Вы не можете редактировать свои сообщения
Вы не можете удалять свои сообщения
Вы не можете голосовать в опросах
Вы не можете прикреплять файлы к сообщениям
Вы не можете скачивать файлы