Loading...
Error

(Акафисты, каноны, молебны (lossless).) "Акафист Святому Великомученику и Целителю Пантелеимону". - 2007, APE (image + .cue), lossless

Ответить на тему
Статистика раздачи
   
 
Автор Сообщение

СЕРГУЛЕТ

Стаж: 8 лет 8 месяцев

Сообщений: 2640

Откуда: LA ROMANA

Dominicanrep

post 16-Дек-2009 13:03

[Цитировать] 

"Акафист Святому Великомученику и Целителю Пантелеимону".

pic
Страна: Беларусь. Издательство Белорусского Экзархата.
Жанр: Акафисты, каноны, молебны (lossless).
Год выпуска: 2007
Формат: APE (image + .cue)
Битрейт аудио: lossless
Продолжительность: 00:44:00
Обложки+Содержание
picpicpic
Дополнительная информация: Хор храма Рождества Христова г. Минска.
Регент Инна Бодяко.
EAC log
Exact Audio Copy V0.99 prebeta 5 from 4. May 2009

Отчёт EAC об извлечении, выполненном 16. декабря 2009, 10:28

Хор храма Рождества Христова / Акафист вмч. Пантелеймону

Дисковод: ASUS BC-1205PT Adapter: 1 ID: 0

Режим чтения : Достоверность
Использование точного потока : Да
Отключение кэша аудио : Да
Использование указателей C2 : Нет

Коррекция смещения при чтении : 667
Способность читать области Lead-in и Lead-out : Нет
Заполнение пропущенных сэмплов тишиной : Да
Удаление блоков с тишиной в начале и конце : Нет
При вычислениях CRC использовались нулевые сэмплы : Да
Интерфейс : Встроенный Win32-интерфейс для Win NT/2000

Выходной формат : Внутренние WAV-операции
Формат сэмплов : 44.100 Гц; 16 бит; стерео

TOC извлечённого CD

Трек | Старт | Длительность | Начальный сектор | Конечный сектор
---------------------------------------------------------------------
1 | 0:00.00 | 2:01.40 | 0 | 9114
2 | 2:01.40 | 0:47.39 | 9115 | 12678
3 | 2:49.04 | 2:00.73 | 12679 | 21751
4 | 4:50.02 | 0:35.58 | 21752 | 24434
5 | 5:25.60 | 1:56.01 | 24435 | 33135
6 | 7:21.61 | 0:37.27 | 33136 | 35937
7 | 7:59.13 | 1:55.73 | 35938 | 44635
8 | 9:55.11 | 0:38.63 | 44636 | 47548
9 | 10:33.74 | 2:06.04 | 47549 | 57002
10 | 12:40.03 | 0:42.49 | 57003 | 60201
11 | 13:22.52 | 2:15.12 | 60202 | 70338
12 | 15:37.64 | 0:46.28 | 70339 | 73816
13 | 16:24.17 | 2:00.39 | 73817 | 82855
14 | 18:24.56 | 0:34.50 | 82856 | 85455
15 | 18:59.31 | 2:09.10 | 85456 | 95140
16 | 21:08.41 | 0:46.20 | 95141 | 98610
17 | 21:54.61 | 2:03.09 | 98611 | 107844
18 | 23:57.70 | 0:42.50 | 107845 | 111044
19 | 24:40.45 | 2:03.67 | 111045 | 120336
20 | 26:44.37 | 0:39.50 | 120337 | 123311
21 | 27:24.12 | 2:15.70 | 123312 | 133506
22 | 29:40.07 | 0:43.46 | 133507 | 136777
23 | 30:23.53 | 1:56.74 | 136778 | 145551
24 | 32:20.52 | 0:35.74 | 145552 | 148250
25 | 32:56.51 | 2:15.07 | 148251 | 158382
26 | 35:11.58 | 0:44.12 | 158383 | 161694
27 | 35:55.70 | 0:44.28 | 161695 | 165022
28 | 36:40.23 | 0:44.18 | 165023 | 168340
29 | 37:24.41 | 2:13.27 | 168341 | 178342
30 | 39:37.68 | 1:00.33 | 178343 | 182875
31 | 40:38.26 | 3:10.20 | 182876 | 197145
32 | 43:48.46 | 0:49.41 | 197146 | 200861

Характеристики диапазона извлечения и сообщения об ошибках

Выбранный диапазон

Имя файла C:\Хор храма Рождества Христова - Акафист вмч. Пантелеймону.wav

Пиковый уровень 95.3 %
Качество диапазона 100.0 %
CRC копии 6BF68D1B
Копирование... OK

Ошибок не произошло

AccurateRip: сводка
Трек 1 нет в базе данных
Трек 2 нет в базе данных
Трек 3 нет в базе данных
Трек 4 нет в базе данных
Трек 5 нет в базе данных
Трек 6 нет в базе данных
Трек 7 нет в базе данных
Трек 8 нет в базе данных
Трек 9 нет в базе данных
Трек 10 нет в базе данных
Трек 11 нет в базе данных
Трек 12 нет в базе данных
Трек 13 нет в базе данных
Трек 14 нет в базе данных
Трек 15 нет в базе данных
Трек 16 нет в базе данных
Трек 17 нет в базе данных
Трек 18 нет в базе данных
Трек 19 нет в базе данных
Трек 20 нет в базе данных
Трек 21 нет в базе данных
Трек 22 нет в базе данных
Трек 23 нет в базе данных
Трек 24 нет в базе данных
Трек 25 нет в базе данных
Трек 26 нет в базе данных
Трек 27 нет в базе данных
Трек 28 нет в базе данных
Трек 29 нет в базе данных
Трек 30 нет в базе данных
Трек 31 нет в базе данных
Трек 32 нет в базе данных
Ни одного трека нет в базе AccurateRip

Конец отчёта
Download

Войдите на сайт, чтобы увидеть полную информацию.

Как скачивать  ·   Правила трекера

[Профиль]  [ЛС] 

gvozzzd

post 05-Фев-2010 00:10 (спустя 1 месяц 19 дней)

[Цитировать] 

Спаси Господи!
 

gassag

Стаж: 8 лет 8 месяцев

Сообщений: 5

Russia

post 02-Май-2010 17:25 (спустя 2 месяца 26 дней)

[Цитировать] 

Уважаемый СЕРГУЛЕТ, начало этого диска испорчено щелчками (ошибки чтения),
если созможность оцифровать и перезалить не поврежденную версию ?
[Профиль]  [ЛС] 

Anatolem

Стаж: 8 лет 1 месяц

Сообщений: 68

Откуда: Украина, г. Макеевка

Ussr

post 06-Май-2010 20:15 (спустя 4 дня)

[Цитировать] 

Спаси вас Господи!

_________________
Слава Святей, и Единосущней, и Животворящей, и Нераздельней Троице всегда, ныне и присно, и во веки веков!
[Профиль]  [ЛС] 

Anatolem

Стаж: 8 лет 1 месяц

Сообщений: 68

Откуда: Украина, г. Макеевка

Ussr

post 06-Май-2010 20:18 (спустя 2 минуты)

[Цитировать] 

Спаси вас Бог!

_________________
Слава Святей, и Единосущней, и Животворящей, и Нераздельней Троице всегда, ныне и присно, и во веки веков!
[Профиль]  [ЛС] 

olvd

Стаж: 7 лет 6 месяцев

Сообщений: 40

Откуда: Новосибирск

Russia

post 22-Июн-2010 06:41 (спустя 1 месяц 15 дней)

[Цитировать] 

Спаси Господи.
После начала track03 и далее нет щелчков.
[Профиль]  [ЛС] 

samor-natalya

post 13-Ноя-2010 12:29 (спустя 4 месяца 21 день)

[Цитировать] 

Спаси, Господи!.
 

stnlm

post 13-Дек-2010 12:02 (спустя 29 дней)

[Цитировать] 

спаси Господи
 

yulylysenko

Стаж: 7 лет

Сообщений: 22

Откуда: Лисичанск, Луганская обл.

Ukraine

post 16-Дек-2010 19:06 (спустя 3 дня)

[Цитировать] 

gassag писал(а):

Уважаемый СЕРГУЛЕТ, начало этого диска испорчено щелчками (ошибки чтения),
если созможность оцифровать и перезалить не поврежденную версию ?
Этот акафист есть в сборнике в хорошем качестве без щелчков забираем здесь http://pravtor.ru/viewtopic.php?t=7673&spmode=full#seeders

_________________
...мудрость, сходящая свыше, во-первых, чиста, потом мирна, скромна, послушлива, полна милосердия и добрых плодов, беспристрастна и нелицемерна.
[Профиль]  [ЛС] 

BBoris

Стаж: 7 лет 9 месяцев

Сообщений: 7

post 24-Июл-2011 04:05 (спустя 7 месяцев)

[Цитировать] 

Спасибо за акафист.
Слушаю обычно через наушники, с той громкостью какая мне требуется, на плеере (или телефоне) в формате mp3. Но данную раздачу конвертировать в mp3 с разделением треков согласно имеющемуся файлу cue не получилось. Ошибка.
Для исправления необходимо открыть файл cue в блокноте и исправить строчку с ссылкой на сам музыкальный файл - расширение wav на ape - т.е.
"FILE "Хор храма Рождества Христова - Акафист вмч. Пантелеймону.ape" WAVE"
[Профиль]  [ЛС] 
Показать сообщения:    
Ответить на тему

Текущее время: 23-Окт 02:49

Часовой пояс: GMT + 4



Вы не можете начинать темы
Вы не можете отвечать на сообщения
Вы не можете редактировать свои сообщения
Вы не можете удалять свои сообщения
Вы не можете голосовать в опросах
Вы не можете прикреплять файлы к сообщениям
Вы не можете скачивать файлы