Loading...
Error

(Церковная музыка и церковные хоры (lossless).) П. И. Чайковский. Литургия по чину святого Иоанна Златоуста, Соч. 41. 1878г. (Бас - Дмитритрий Степанович). - 2000, FLAC (tracks), lossless

Ответить на тему
Статистика раздачи
   
 
Автор Сообщение

СЕРГУЛЕТ

Стаж: 12 лет

Сообщений: 2637

Откуда: LA ROMANA

Dominicanrep

post 10-Июл-2011 12:27

[Цитировать] 

П. И. Чайковский. Литургия по чину святого Иоанна Златоуста, Соч. 41. 1878г. (Бас - Дмитритрий Степанович).

pic
Страна: Россия. Государственная Третьяковская Галерея.
Жанр: Церковная музыка и церковные хоры (lossless).
Год выпуска: 2000
Формат: FLAC (tracks)
Битрейт аудио: lossless
Продолжительность: 00:54:25
Трэклист:
01. Тропарь Рождеству Христову
02. Великая ектения
03. Единородный Сыне
04. Малая Ектения
05. Приидите поклонимся
06. Святый Боже
07. Аллилуйя
08. Сугубая ектения
09. Ектения перед Херувимской
10. Херувимская песнь
11. Просительная ектения
12. Верую
13. Милость мира
14. Тебе поем
15. Достойно есть
16. Ектения перед Отче наш
17. Отче наш
18. Хвалите Господа с небес
19. Благословен грядый
20. Буди имя Господне
Дополнительная информация: Бас - Дмитрий Степанович
Хор храма-музея св. Николая в Толмачах
Регент - Алексей Пузаков.
EAC log
Exact Audio Copy V0.99 prebeta 5 from 4. May 2009

Отчёт EAC об извлечении, выполненном 1. ноября 2010, 23:13

Чайковский П.И. / Литургия Иоанна Златоуста

Дисковод: TSSTcorpCD/DVDW SH-S183A Adapter: 1 ID: 0

Режим чтения : Достоверность
Использование точного потока : Да
Отключение кэша аудио : Да
Использование указателей C2 : Нет

Коррекция смещения при чтении : 6
Способность читать области Lead-in и Lead-out : Нет
Заполнение пропущенных сэмплов тишиной : Да
Удаление блоков с тишиной в начале и конце : Нет
При вычислениях CRC использовались нулевые сэмплы : Да
Интерфейс : Встроенный Win32-интерфейс для Win NT/2000

Выходной формат : Пользовательский кодировщик
Выбранный битрейт : 1024 kBit/s
Качество : Высокий
Добавление ID3-тэга : Нет
Утилита сжатия : C:\Program Files (x86)\Exact Audio Copy\FLAC\FLAC.EXE
Дополнительные параметры : -6 -V -T "ARTIST=%a" -T "TITLE=%t" -T "ALBUM=%g" -T "DATE=%y" -T "TRACKNUMBER=%n" -T "GENRE=%m" -T "COMMENT=%e" %s -o %d

TOC извлечённого CD

Трек | Старт | Длительность | Начальный сектор | Конечный сектор
---------------------------------------------------------------------
1 | 0:00.00 | 0:54.71 | 0 | 4120
2 | 0:54.71 | 4:49.44 | 4121 | 25839
3 | 5:44.40 | 1:49.49 | 25840 | 34063
4 | 7:34.14 | 1:17.60 | 34064 | 39898
5 | 8:51.74 | 0:57.04 | 39899 | 44177
6 | 9:49.03 | 2:06.39 | 44178 | 53666
7 | 11:55.42 | 0:38.40 | 53667 | 56556
8 | 12:34.07 | 3:35.30 | 56557 | 72711
9 | 16:09.37 | 2:58.17 | 72712 | 86078
10 | 19:07.54 | 7:02.19 | 86079 | 117747
11 | 26:09.73 | 2:18.26 | 117748 | 128123
12 | 28:28.24 | 4:11.30 | 128124 | 146978
13 | 32:39.54 | 3:05.67 | 146979 | 160920
14 | 35:45.46 | 2:47.74 | 160921 | 173519
15 | 38:33.45 | 2:33.61 | 173520 | 185055
16 | 41:07.31 | 2:10.57 | 185056 | 194862
17 | 43:18.13 | 3:30.63 | 194863 | 210675
18 | 46:49.01 | 2:31.00 | 210676 | 222000
19 | 49:20.01 | 3:36.45 | 222001 | 238245
20 | 52:56.46 | 1:26.73 | 238246 | 244768

Трек 1, Индекс 1

Пиковый уровень 60.0 %
Качество трека 100.0 %
Копирование... OK

Трек 2, Индекс 1

Пиковый уровень 92.1 %
Качество трека 100.0 %
Копирование... OK

Трек 3, Индекс 1

Пиковый уровень 85.3 %
Качество трека 100.0 %
Копирование... OK

Трек 4, Индекс 1

Пиковый уровень 51.0 %
Качество трека 100.0 %
Копирование... OK

Трек 5, Индекс 1

Пиковый уровень 98.2 %
Качество трека 100.0 %
Копирование... OK

Трек 6, Индекс 1

Пиковый уровень 94.7 %
Качество трека 99.9 %
Копирование... OK

Трек 7, Индекс 1

Пиковый уровень 73.1 %
Качество трека 99.7 %
Копирование... OK

Трек 8, Индекс 1

Пиковый уровень 71.4 %
Качество трека 100.0 %
Копирование... OK

Трек 9, Индекс 1

Пиковый уровень 61.2 %
Качество трека 100.0 %
Копирование... OK

Трек 10, Индекс 1

Пиковый уровень 94.4 %
Качество трека 100.0 %
Копирование... OK

Трек 11, Индекс 1

Пиковый уровень 66.8 %
Качество трека 100.0 %
Копирование... OK

Трек 12, Индекс 1

Пиковый уровень 100.0 %
Качество трека 99.9 %
Копирование... OK

Трек 13, Индекс 1

Пиковый уровень 93.3 %
Качество трека 100.0 %
Копирование... OK

Трек 14, Индекс 1

Пиковый уровень 41.3 %
Качество трека 99.9 %
Копирование... OK

Трек 15, Индекс 1

Пиковый уровень 91.5 %
Качество трека 100.0 %
Копирование... OK

Трек 16, Индекс 1

Пиковый уровень 29.7 %
Качество трека 100.0 %
Копирование... OK

Трек 17, Индекс 1

Пиковый уровень 46.9 %
Качество трека 99.9 %
Копирование... OK

Трек 18, Индекс 1

Пиковый уровень 87.2 %
Качество трека 100.0 %
Копирование... OK

Трек 19, Индекс 1

Пиковый уровень 88.8 %
Качество трека 100.0 %
Копирование... OK

Трек 20, Индекс 1

Пиковый уровень 100.0 %
Качество трека 100.0 %
Копирование... OK

AccurateRip: сводка

Трек 1 нет в базе данных
Трек 2 нет в базе данных
Трек 3 нет в базе данных
Трек 4 нет в базе данных
Трек 5 нет в базе данных
Трек 6 нет в базе данных
Трек 7 нет в базе данных
Трек 8 нет в базе данных
Трек 9 нет в базе данных
Трек 10 нет в базе данных
Трек 11 нет в базе данных
Трек 12 нет в базе данных
Трек 13 нет в базе данных
Трек 14 нет в базе данных
Трек 15 нет в базе данных
Трек 16 нет в базе данных
Трек 17 нет в базе данных
Трек 18 нет в базе данных
Трек 19 нет в базе данных
Трек 20 нет в базе данных

Ни одного трека нет в базе AccurateRip

Ошибок не произошло

Конец отчёта
Download

Войдите на сайт, чтобы увидеть полную информацию.

Как скачивать  ·   Правила трекера

[Профиль]  [ЛС] 

Игорь I

Стаж: 11 лет

Сообщений: 2032

Russia

post 17-Фев-2021 02:04 (спустя 9 лет 7 месяцев)

[Цитировать] 

Благодарю
[Профиль]  [ЛС] 
Показать сообщения:    
Ответить на тему

Текущее время: 01-Мар 07:33

Часовой пояс: GMT + 4



Вы не можете начинать темы
Вы не можете отвечать на сообщения
Вы не можете редактировать свои сообщения
Вы не можете удалять свои сообщения
Вы не можете голосовать в опросах
Вы не можете прикреплять файлы к сообщениям
Вы не можете скачивать файлы