Loading...
Error

(Акафисты, каноны, молебны (lossless).) "Академия у Троицы". (Духовные песнопения+Акафист Покрову Божией Матери). (3CD). - 2002, APE (image + .cue), lossless

Ответить на тему
Статистика раздачи
   
 
Автор Сообщение

СЕРГУЛЕТ

Стаж: 8 лет 8 месяцев

Сообщений: 2640

Откуда: LA ROMANA

Dominicanrep

post 05-Июл-2011 23:54

[Цитировать] 

"Академия у Троицы". (Духовные песнопения+Акафист Покрову Божией Матери). (3CD).

pic
Страна: Россия. Свято-Троице Сергиева Лавра.
Жанр: Акафисты, каноны, молебны (lossless).
Год выпуска: 2002
Формат: APE (image + .cue)
Битрейт аудио: lossless
Продолжительность: 01:19:57+00:50:26+00:45:38
Содержание+Обложки
picpic
EAC log
Exact Audio Copy V1.0 beta 2 from 29. April 2011

Отчёт EAC об извлечении, выполненном 5. июля 2011, 21:02

Unknown Artist / Unknown Title

Дисковод: ASUS DRW-2014L1T Adapter: 2 ID: 1

Режим чтения : Достоверность
Использование точного потока : Да
Отключение кэша аудио : Да
Использование указателей C2 : Нет

Коррекция смещения при чтении : 6
Способность читать области Lead-in и Lead-out : Нет
Заполнение пропущенных сэмплов тишиной : Да
Удаление блоков с тишиной в начале и конце : Нет
При вычислениях CRC использовались нулевые сэмплы : Да
Интерфейс : Встроенный Win32-интерфейс для Win NT/2000

Выходной формат : Внутренние WAV-операции
Формат сэмплов : 44.100 Гц; 16 бит; стерео

TOC извлечённого CD

Трек | Старт | Длительность | Начальный сектор | Конечный сектор
---------------------------------------------------------------------
1 | 0:00.00 | 0:44.55 | 0 | 3354
2 | 0:44.55 | 1:11.20 | 3355 | 8699
3 | 1:56.00 | 2:21.57 | 8700 | 19331
4 | 4:17.57 | 1:06.13 | 19332 | 24294
5 | 5:23.70 | 1:10.74 | 24295 | 29618
6 | 6:34.69 | 5:03.16 | 29619 | 52359
7 | 11:38.10 | 2:04.24 | 52360 | 61683
8 | 13:42.34 | 3:21.03 | 61684 | 76761
9 | 17:03.37 | 7:02.74 | 76762 | 108485
10 | 24:06.36 | 1:04.31 | 108486 | 113316
11 | 25:10.67 | 3:15.74 | 113317 | 128015
12 | 28:26.66 | 1:15.22 | 128016 | 133662
13 | 29:42.13 | 4:46.61 | 133663 | 155173
14 | 34:28.74 | 2:52.42 | 155174 | 168115
15 | 37:21.41 | 1:33.00 | 168116 | 175090
16 | 38:54.41 | 1:50.11 | 175091 | 183351
17 | 40:44.52 | 0:54.05 | 183352 | 187406
18 | 41:38.57 | 1:47.37 | 187407 | 195468
19 | 43:26.19 | 3:40.07 | 195469 | 211975
20 | 47:06.26 | 1:57.52 | 211976 | 220802
21 | 49:04.03 | 5:02.05 | 220803 | 243457
22 | 54:06.08 | 3:46.49 | 243458 | 260456
23 | 57:52.57 | 3:14.58 | 260457 | 275064
24 | 61:07.40 | 1:42.05 | 275065 | 282719
25 | 62:49.45 | 4:39.65 | 282720 | 303709
26 | 67:29.35 | 5:42.63 | 303710 | 329422
27 | 73:12.23 | 5:54.56 | 329423 | 356028
28 | 79:07.04 | 0:50.68 | 356029 | 359846

Характеристики диапазона извлечения и сообщения об ошибках

Выбранный диапазон

Имя файла C:\Unknown Artist - Unknown Title.wav

Пиковый уровень 97.5 %
Скорость извлечения 8.3 X
Качество диапазона 99.9 %
CRC копии 7354BCAB
Копирование... OK

Ошибок не произошло

Конец отчёта

==== Контрольная сумма отчёта 0B7946DE4422B3F200E64890C58D7ACBFA3C27AC5C9B4611CC4BD3312DF53CC0 ====

cd2.
Exact Audio Copy V1.0 beta 2 from 29. April 2011

Отчёт EAC об извлечении, выполненном 5. июля 2011, 21:12

Хор МДА / Академия у Троицы-2

Дисковод: ASUS DRW-2014L1T Adapter: 2 ID: 1

Режим чтения : Достоверность
Использование точного потока : Да
Отключение кэша аудио : Да
Использование указателей C2 : Нет

Коррекция смещения при чтении : 6
Способность читать области Lead-in и Lead-out : Нет
Заполнение пропущенных сэмплов тишиной : Да
Удаление блоков с тишиной в начале и конце : Нет
При вычислениях CRC использовались нулевые сэмплы : Да
Интерфейс : Встроенный Win32-интерфейс для Win NT/2000

Выходной формат : Внутренние WAV-операции
Формат сэмплов : 44.100 Гц; 16 бит; стерео

TOC извлечённого CD

Трек | Старт | Длительность | Начальный сектор | Конечный сектор
---------------------------------------------------------------------
1 | 0:00.00 | 1:28.64 | 0 | 6663
2 | 1:28.64 | 2:28.11 | 6664 | 17774
3 | 3:57.00 | 3:01.58 | 17775 | 31407
4 | 6:58.58 | 2:46.11 | 31408 | 43868
5 | 9:44.69 | 40:42.01 | 43869 | 227019

Характеристики диапазона извлечения и сообщения об ошибках

Выбранный диапазон

Имя файла C:\Хор МДА - Академия у Троицы-2.wav

Пиковый уровень 98.8 %
Скорость извлечения 7.0 X
Качество диапазона 100.0 %
CRC копии 6C287E59
Копирование... OK

Ошибок не произошло

Конец отчёта

==== Контрольная сумма отчёта D1C95B9BD384E5B064AEAA33D5CE6F6D2C09AD6C44E06B1B11B7577556EA06EE ====

cd3.
Exact Audio Copy V1.0 beta 2 from 29. April 2011

Отчёт EAC об извлечении, выполненном 5. июля 2011, 21:36

Хор МДА / Академия у Троицы-3

Дисковод: ASUS DRW-2014L1T Adapter: 2 ID: 1

Режим чтения : Достоверность
Использование точного потока : Да
Отключение кэша аудио : Да
Использование указателей C2 : Нет

Коррекция смещения при чтении : 6
Способность читать области Lead-in и Lead-out : Нет
Заполнение пропущенных сэмплов тишиной : Да
Удаление блоков с тишиной в начале и конце : Нет
При вычислениях CRC использовались нулевые сэмплы : Да
Интерфейс : Встроенный Win32-интерфейс для Win NT/2000

Выходной формат : Внутренние WAV-операции
Формат сэмплов : 44.100 Гц; 16 бит; стерео

TOC извлечённого CD

Трек | Старт | Длительность | Начальный сектор | Конечный сектор
---------------------------------------------------------------------
1 | 0:00.00 | 3:44.33 | 0 | 16832
2 | 3:44.33 | 8:07.60 | 16833 | 53417
3 | 11:52.18 | 2:15.59 | 53418 | 63601
4 | 14:08.02 | 3:18.21 | 63602 | 78472
5 | 17:26.23 | 3:18.33 | 78473 | 93355
6 | 20:44.56 | 6:37.64 | 93356 | 123194
7 | 27:22.45 | 1:58.00 | 123195 | 132044
8 | 29:20.45 | 1:13.66 | 132045 | 137585
9 | 30:34.36 | 3:56.11 | 137586 | 155296
10 | 34:30.47 | 4:24.58 | 155297 | 175154
11 | 38:55.30 | 2:08.44 | 175155 | 184798
12 | 41:03.74 | 3:13.69 | 184799 | 199342
13 | 44:17.68 | 1:20.40 | 199343 | 205382

Характеристики диапазона извлечения и сообщения об ошибках

Выбранный диапазон

Имя файла C:\Хор МДА - Академия у Троицы-3.wav

Пиковый уровень 91.2 %
Скорость извлечения 2.4 X
Качество диапазона 100.0 %
CRC копии 68F49E88
Копирование... OK

Ошибок не произошло

Конец отчёта

==== Контрольная сумма отчёта 1B3298DE702865B45941F92ECB0B7C59BB3A9F5B8C6B978A4E78843C4A92E4B5 ====
Download

Войдите на сайт, чтобы увидеть полную информацию.

Как скачивать  ·   Правила трекера

[Профиль]  [ЛС] 

arch_Elijah

Стаж: 5 лет 1 месяц

Сообщений: 172

Откуда: KIEV

Ukraine

post 16-Окт-2013 08:40 (спустя 2 года 3 месяца)

[Цитировать] 

22. Како не дивимся - с 21-й по 51-ю секунды помехи, это только у меня или все так скачали?

_________________
орешек знаний твёрд...
[Профиль]  [ЛС] 

CEPBEP4

Стаж: 6 лет 7 месяцев

Сообщений: 133

Откуда: ОРЕНБУРГ

Russia

post 09-Июн-2015 23:56 (спустя 1 год 7 месяцев)

[Цитировать] 

Спасибо, заслушаем!

_________________
pic
pic 100 Мбит/с pic 100 Мбит/с pic
[Профиль]  [ЛС] 
Показать сообщения:    
Ответить на тему

Текущее время: 20-Окт 21:44

Часовой пояс: GMT + 4



Вы не можете начинать темы
Вы не можете отвечать на сообщения
Вы не можете редактировать свои сообщения
Вы не можете удалять свои сообщения
Вы не можете голосовать в опросах
Вы не можете прикреплять файлы к сообщениям
Вы не можете скачивать файлы