Loading...
Error

(Церковная музыка Греции, Афона и Сербии (lossless)) "Песнопения на праздники св. пророка и Предтечи Иоанна" Поют отцы Святогорцы - 2001, APE (image + .cue), lossless

Ответить на тему
Статистика раздачи
   
 
Автор Сообщение

СЕРГУЛЕТ

Стаж: 12 лет

Сообщений: 2637

Откуда: LA ROMANA

Dominicanrep

post 31-Авг-2009 22:28

[Цитировать] 

"Песнопения на праздники св. пророка и Предтечи Иоанна" Поют отцы Святогорцы
pic
Страна: Греция
Жанр: Церковная музыка Греции, Афона и Сербии
Год выпуска: 2001
Формат: APE (image + .cue)
Битрейт аудио: lossless
Продолжительность: 01:02:19
Наличие сканов: да
Трэклист:
Из праздника зачатия Иоанна Предтечи
01. Первее нараждающая неплоды возвеселися…
02. От неплодного днесь чрева…
03. Божественного Гавриила…
04. Неплодствующия души моея…
05. Явися архангел…
Из праздника рождества Иоанна Предтечи
06. Днесь глас Слова…
07. Виждь Елисавет…
08. Да радуется отец…
09. Прежде неплоды днесь Христова Предтечу раждает…
Из праздника собора Предтечи и Крестителя Господня Иоанна
10. Укреплься божественною благодатию…
11. Яко виде тя Владыко…
12. Ты Слова глас предшествовал еси…
13. Крестя всех Творца …
14. Во плоти светильниче…
Из праздника Усекновения главы
15. Рождеству сотворяему…
16. Заклание твое…
17. Что тя наречем, пророче…
18. Во главу усечён…
19. Глас вопиющего…
Из праздника 1-го и 2-го обретения главы
20. От земли возсиявши Предтечева глава…
21. Сокровище многоценное…
22. Сокрытая прежде…
23. Якоже Божественных умышлений…
24. В сосуде скудельне…
25. Пророка тя рече истинна…
26. Пророче Божий и Предтеча благодати…
27. Светоявленная возсия честная твоя глава…
28. Всечестную главу Крестителя Твоего…
Величания
29. Честный Предтеча…
EAC log
Exact Audio Copy V0.99 prebeta 5 from 4. May 2009

Отчёт EAC об извлечении, выполненном 31. августа 2009, 22:14

- / Песнопения на праздники св. пророка и Предтечи Иоанна

Дисковод: ASUS BC-1205PT Adapter: 1 ID: 0

Режим чтения : Достоверность
Использование точного потока : Да
Отключение кэша аудио : Да
Использование указателей C2 : Нет

Коррекция смещения при чтении : 667
Способность читать области Lead-in и Lead-out : Нет
Заполнение пропущенных сэмплов тишиной : Да
Удаление блоков с тишиной в начале и конце : Нет
При вычислениях CRC использовались нулевые сэмплы : Да
Интерфейс : Встроенный Win32-интерфейс для Win NT/2000

Выходной формат : Внутренние WAV-операции
Формат сэмплов : 44.100 Гц; 16 бит; стерео

TOC извлечённого CD

Трек | Старт | Длительность | Начальный сектор | Конечный сектор
---------------------------------------------------------------------
1 | 0:00.00 | 1:00.36 | 0 | 4535
2 | 1:00.36 | 4:53.55 | 4536 | 26565
3 | 5:54.16 | 1:00.09 | 26566 | 31074
4 | 6:54.25 | 1:35.59 | 31075 | 38258
5 | 8:30.09 | 1:30.18 | 38259 | 45026
6 | 10:00.27 | 2:11.50 | 45027 | 54901
7 | 12:12.02 | 2:54.44 | 54902 | 67995
8 | 15:06.46 | 1:22.57 | 67996 | 74202
9 | 16:29.28 | 1:06.53 | 74203 | 79205
10 | 17:36.06 | 1:12.63 | 79206 | 84668
11 | 18:48.69 | 1:16.30 | 84669 | 90398
12 | 20:05.24 | 1:31.30 | 90399 | 97253
13 | 21:36.54 | 1:17.53 | 97254 | 103081
14 | 22:54.32 | 2:09.02 | 103082 | 112758
15 | 25:03.34 | 3:23.38 | 112759 | 128021
16 | 28:26.72 | 2:25.55 | 128022 | 138951
17 | 30:52.52 | 2:37.58 | 138952 | 150784
18 | 33:30.35 | 1:15.67 | 150785 | 156476
19 | 34:46.27 | 3:01.67 | 156477 | 170118
20 | 37:48.19 | 0:56.06 | 170119 | 174324
21 | 38:44.25 | 2:21.53 | 174325 | 184952
22 | 41:06.03 | 1:18.13 | 184953 | 190815
23 | 42:24.16 | 4:36.24 | 190816 | 211539
24 | 47:00.40 | 1:58.48 | 211540 | 220437
25 | 48:59.13 | 1:49.02 | 220438 | 228614
26 | 50:48.15 | 0:52.74 | 228615 | 232588
27 | 51:41.14 | 1:20.64 | 232589 | 238652
28 | 53:02.03 | 7:43.29 | 238653 | 273406
29 | 60:45.32 | 1:31.48 | 273407 | 280279

Характеристики диапазона извлечения и сообщения об ошибках

Выбранный диапазон

Имя файла C:\Users\Сергулет\Documents\Песнопения на праздники св. пророка и Предтечи Иоанна.wav

Пиковый уровень 98.7 %
Качество диапазона 99.9 %
CRC копии 59822DFB
Копирование... OK

Ошибок не произошло

Конец отчёта

Обложки и содержание
pic pic pic pic

Download

Войдите на сайт, чтобы увидеть полную информацию.

Как скачивать  ·   Правила трекера



Последний раз редактировалось: СЕРГУЛЕТ (2010-03-14 17:41), всего редактировалось 12 раз(а)
[Профиль]  [ЛС] 

slmn

Стаж: 11 лет

Сообщений: 16

post 22-Фев-2010 21:28 (спустя 5 месяцев 21 день)

[Цитировать] 

очень интересно, спасибо!
[Профиль]  [ЛС] 

Sirozhmanin

Стаж: 11 лет

Сообщений: 17

post 10-Мар-2010 19:29 (спустя 15 дней)

[Цитировать] 

СпБ!
[Профиль]  [ЛС] 

грешниккк

post 05-Июл-2011 07:44 (спустя 1 год 3 месяца)

[Цитировать] 

спасибо большое
 
Показать сообщения:    
Ответить на тему

Текущее время: 08-Мар 01:22

Часовой пояс: GMT + 4



Вы не можете начинать темы
Вы не можете отвечать на сообщения
Вы не можете редактировать свои сообщения
Вы не можете удалять свои сообщения
Вы не можете голосовать в опросах
Вы не можете прикреплять файлы к сообщениям
Вы не можете скачивать файлы