Loading...
Error

(Акафисты, каноны, молебны (lossless)) Акафист Святой великомученице Анастасии Узорешительнице". - 2011, APE (image + .cue), lossless

Ответить на тему
Статистика раздачи
Скачали: [ 4 ]
   
 
Автор Сообщение

СЕРГУЛЕТ

Стаж: 8 лет 3 месяца

Сообщений: 2639

Откуда: LA ROMANA

Dominicanrep

post 18-Июн-2011 13:02

[Цитировать] 

Акафист Святой великомученице Анастасии Узорешительнице".

pic
Страна: Украина.
Жанр: Акафисты, каноны, молебны (lossless)
Год выпуска: 2011
Формат: APE (image + .cue)
Битрейт аудио: lossless
Продолжительность: 00:51:00
Обложки+Содержание
picpic
EAC log
Exact Audio Copy V0.99 prebeta 5 from 4. May 2009

Отчёт EAC об извлечении, выполненном 18. июня 2011, 0:11

Ансамбль Сретение / Акафист вмч.Анастасии Узорешительнице

Дисковод: ASUS DRW-2014L1T Adapter: 2 ID: 1

Режим чтения : Достоверность
Использование точного потока : Да
Отключение кэша аудио : Да
Использование указателей C2 : Нет

Коррекция смещения при чтении : 6
Способность читать области Lead-in и Lead-out : Нет
Заполнение пропущенных сэмплов тишиной : Да
Удаление блоков с тишиной в начале и конце : Нет
При вычислениях CRC использовались нулевые сэмплы : Да
Интерфейс : Встроенный Win32-интерфейс для Win NT/2000

Выходной формат : Внутренние WAV-операции
Формат сэмплов : 44.100 Гц; 16 бит; стерео

TOC извлечённого CD

Трек | Старт | Длительность | Начальный сектор | Конечный сектор
---------------------------------------------------------------------
1 | 0:00.00 | 1:02.21 | 0 | 4670
2 | 1:02.21 | 1:15.74 | 4671 | 10369
3 | 2:18.20 | 1:21.24 | 10370 | 16468
4 | 3:39.44 | 0:43.00 | 16469 | 19693
5 | 4:22.44 | 1:52.00 | 19694 | 28093
6 | 6:14.44 | 0:46.61 | 28094 | 31604
7 | 7:01.30 | 1:21.20 | 31605 | 37699
8 | 8:22.50 | 0:41.51 | 37700 | 40825
9 | 9:04.26 | 1:56.18 | 40826 | 49543
10 | 11:00.44 | 0:42.74 | 49544 | 52767
11 | 11:43.43 | 1:57.50 | 52768 | 61592
12 | 13:41.18 | 0:37.37 | 61593 | 64404
13 | 14:18.55 | 1:59.52 | 64405 | 73381
14 | 16:18.32 | 0:45.05 | 73382 | 76761
15 | 17:03.37 | 1:46.58 | 76762 | 84769
16 | 18:50.20 | 0:47.30 | 84770 | 88324
17 | 19:37.50 | 1:57.47 | 88325 | 97146
18 | 21:35.22 | 0:41.28 | 97147 | 100249
19 | 22:16.50 | 1:53.09 | 100250 | 108733
20 | 24:09.59 | 0:38.25 | 108734 | 111608
21 | 24:48.09 | 1:53.12 | 111609 | 120095
22 | 26:41.21 | 0:51.72 | 120096 | 123992
23 | 27:33.18 | 1:38.63 | 123993 | 131405
24 | 29:12.06 | 0:42.04 | 131406 | 134559
25 | 29:54.10 | 1:50.57 | 134560 | 142866
26 | 31:44.67 | 1:59.32 | 142867 | 151823
27 | 33:44.24 | 1:31.07 | 151824 | 158655
28 | 35:15.31 | 1:21.51 | 158656 | 164781
29 | 36:37.07 | 1:15.58 | 164782 | 170464
30 | 37:52.65 | 1:21.54 | 170465 | 176593
31 | 39:14.44 | 1:01.21 | 176594 | 181189
32 | 40:15.65 | 10:39.28 | 181190 | 229142

Характеристики диапазона извлечения и сообщения об ошибках

Выбранный диапазон

Имя файла C:\Users\Сергей\Desktop\Ансамбль Сретение - Акафист вмч.Анастасии Узорешительнице.wav

Пиковый уровень 94.4 %
Качество диапазона 100.0 %
CRC копии 3012B5E6
Копирование... OK

Ошибок не произошло

Конец отчёта
Дополнительная информация: Ансамбль церковных певчих "Сретение".
Download

Войдите для скачивания торрент-файла

Как скачивать  ·   Правила трекера

[Профиль]  [ЛС] 

bsergey17

Стаж: 7 лет 6 месяцев

Сообщений: 12

Откуда: Украина

Ukraine

post 22-Дек-2011 14:58 (спустя 6 месяцев)

[Цитировать] 

Спаси Вас Господи!!
[Профиль]  [ЛС] 
Показать сообщения:    
Ответить на тему

Текущее время: 29-Май 02:23

Часовой пояс: GMT + 4



Вы не можете начинать темы
Вы не можете отвечать на сообщения
Вы не можете редактировать свои сообщения
Вы не можете удалять свои сообщения
Вы не можете голосовать в опросах
Вы не можете прикреплять файлы к сообщениям
Вы не можете скачивать файлы