Loading...
Error

(Акафисты, каноны, молебны (lossless).) Акафист святителю Николаю Чудотворцу. Праздничный хор Московского Данилова монастыря. - 2011, APE (image + .cue), lossless

Ответить на тему
Статистика раздачи
Скачали: [ 10 ]
   
 
Автор Сообщение

СЕРГУЛЕТ

Стаж: 8 лет

Сообщений: 2639

Откуда: LA ROMANA

Dominicanrep

post 18-Июн-2011 12:35

[Цитировать] 

Акафист святителю Николаю Чудотворцу. Праздничный хор Московского Данилова монастыря.

pic
Страна: Россия. Данилов монастырь.
Жанр: Акафисты, каноны, молебны (lossless).
Год выпуска: 2011
Формат: APE (image + .cue)
Битрейт аудио: lossless
Продолжительность: 00:45:43
Обложки+Содержание
picpic
EAC log
Exact Audio Copy V0.99 prebeta 5 from 4. May 2009

Отчёт EAC об извлечении, выполненном 17. июня 2011, 23:01

Хор Данилова монастыря. / Акафист Святителю Николаю

Дисковод: ASUS DRW-2014L1T Adapter: 2 ID: 1

Режим чтения : Достоверность
Использование точного потока : Да
Отключение кэша аудио : Да
Использование указателей C2 : Нет

Коррекция смещения при чтении : 6
Способность читать области Lead-in и Lead-out : Нет
Заполнение пропущенных сэмплов тишиной : Да
Удаление блоков с тишиной в начале и конце : Нет
При вычислениях CRC использовались нулевые сэмплы : Да
Интерфейс : Встроенный Win32-интерфейс для Win NT/2000

Выходной формат : Внутренние WAV-операции
Формат сэмплов : 44.100 Гц; 16 бит; стерео

TOC извлечённого CD

Трек | Старт | Длительность | Начальный сектор | Конечный сектор
---------------------------------------------------------------------
1 | 0:00.00 | 1:22.08 | 0 | 6157
2 | 1:22.08 | 1:36.37 | 6158 | 13394
3 | 2:58.45 | 0:54.22 | 13395 | 17466
4 | 3:52.67 | 0:51.08 | 17467 | 21299
5 | 4:44.00 | 6:39.48 | 21300 | 51272
6 | 11:23.48 | 7:23.60 | 51273 | 84557
7 | 18:47.33 | 7:11.62 | 84558 | 116944
8 | 25:59.20 | 7:30.11 | 116945 | 150705
9 | 33:29.31 | 1:35.73 | 150706 | 157903
10 | 35:05.29 | 2:41.19 | 157904 | 169997
11 | 37:46.48 | 3:23.22 | 169998 | 185244
12 | 41:09.70 | 1:23.15 | 185245 | 191484
13 | 42:33.10 | 1:29.36 | 191485 | 198195
14 | 44:02.46 | 1:38.44 | 198196 | 205589

Характеристики диапазона извлечения и сообщения об ошибках

Выбранный диапазон

Имя файла C:\Users\Сергей\Desktop\Хор Данилова монастыря. - Акафист Святителю Николаю.wav

Пиковый уровень 98.8 %
Качество диапазона 99.9 %
CRC копии 94AA05D0
Копирование... OK

Ошибок не произошло

Конец отчёта
Download

Войдите для скачивания торрент-файла

Как скачивать  ·   Правила трекера

[Профиль]  [ЛС] 

vironika

Стаж: 5 лет 9 месяцев

Сообщений: 15

post 28-Дек-2011 20:53 (спустя 6 месяцев)

[Цитировать] 

спасибо
[Профиль]  [ЛС] 

anatolzzz

post 10-Мар-2012 18:07 (спустя 2 месяца 12 дней)

[Цитировать] 

Большое спасибо!!!
 
Показать сообщения:    
Ответить на тему

Текущее время: 01-Мар 21:47

Часовой пояс: GMT + 4



Вы не можете начинать темы
Вы не можете отвечать на сообщения
Вы не можете редактировать свои сообщения
Вы не можете удалять свои сообщения
Вы не можете голосовать в опросах
Вы не можете прикреплять файлы к сообщениям
Вы не можете скачивать файлы