Loading...
Error

(Церковная музыка и церковные хоры (lossless)) "Всенощное бдение. Память преподобных Сергия и Германа, Валаамских чудотворцев". (3 CD). - 2004, APE (image + .cue), lossless

Ответить на тему
Статистика раздачи
Скачали: [ 10 ]
   
 
Автор Сообщение

СЕРГУЛЕТ

Стаж: 8 лет

Сообщений: 2639

Откуда: LA ROMANA

Dominicanrep

post 17-Июн-2011 11:19

[Цитировать] 

"Всенощное бдение. Память преподобных Сергия и Германа, Валаамских чудотворцев". (3 CD).

pic
Страна: Россия.Продюсерский центр Игоря Матвиенко.
Жанр: Церковная музыка и церковные хоры (lossless)
Год выпуска: 2004
Формат: APE (image + .cue)
Битрейт аудио: lossless
Продолжительность: 01:05:18+00:53:06+00:52:10
Трэклист:
Диск 1:
Великая вечерня
1. «Приидите, поклонимся…»*
2. «Благослови, душе моя, Господа…»
3. Великая ектения *
4. «Блажен муж…»**
5. Малая ектения
6. «Господи, воззвах…» (глас 8***)
7. Стихиры на «Господи, воззвах…» (глас 8***)
«Мира жители Сергий и Герман, ко Христу любовию распалившеся…»
«О дивнаго мужества многострастныя плоти не щадят святии…»
«О столпи одушевленнии Сергие и Германе, добродетельми украшеннии…»
«Яко маслины плодовиты в дому Божии возрастоша…»
Подобен: «О преславнаго чудесе…»***
8. «Славим Тя, Триипостасный Боже…»( глас 6) [Обиходный распев]
9. Догматик «Кто Тебе не ублажит, Пресвятая Дево…» (глас 6**)
10. «Свете тихий…» [Валаамский распев в четырехголосном переложении диакона Сергия Трубачева]
11. Паремии
12. Стихира на литии «Безначальнаго Света из тьмы свет дивный создавшаго…» (глас 3***)
13. «Благодатный свет Триипостаснаго Божества и душ ваших, Сергие и Германе…» (глас 2***)
14. Богородичен «О чудесе новаго всех древних чудес!» (глас 2***)
15. Стихира на стиховне «Радуйся, Богоизбранная двоице Сергие и Германе, непобедимии Христовы воины…» глас 5
Подобен: «Радуйся…»***
16. «Монахов лики Бога в Троице славословящих…» (глас 8***)
17. Богородичен «Безневестная Дево…» (глас 8***)
18. «Ныне отпущаеши…»** Трисвятое по Отче наш
19. Тропарь прпп. Сергию и Герману «Евангелия Христова истиннии послушницы…» (глас 4) [Обиходный распев с исоном]
20. «Богородице Дево, радуйся…» ***
21. «Буди имя Господне…»*** [Псалом 33*]
22. Возглас
* знаменный распев
** валаамский распев
*** валаамский распев с исоном
Возгласы — иерей Ростислав Перебейнос
Диск II
Утреня (часть I)
1. Шестопсалмие
2. Великая ектения*
3. «Бог Господь…» ( глас 4**)
4. Тропарь «Евангелия Христова истиннии послушницы…» (глас 4) [Малый знаменный распев с исоном]
5. Тропарь «От мирския молвы бегающия…» (глас 1**)
6. Догматик «Гавриилу, вещавшу Тебе: Дево, радуйся…» (глас 1) [Знаменный распев с исоном]
7. Полиелей
8. Величание прпп. Сергию и Герману Валаамским [знаменный распев, строчный]
9. «Седален Хваляще имя Господа в Божественнем Его храме…»
10. «От юности моея…» (глас 4**)
11. Чин Евангелия (глас 4**)
12. Псалом 50
13. Стихира «Светоносная отцев память яки труба велегласная…» (глас 6*/***)
Канон преподобным Сергию и Герману Валаамским (глас 4*/****)
14. Песнь 1
15. Песнь 3
16. Седален «От шума житейских волн удаляющиеся…»
* знаменный распев
** валаамский распев с исоном
*** обиходный распев
**** греческий распев с исоном
Возгласы и чтение Евангелия — иерей Ростислав Перебейнос
Диск III
Утреня (часть II)
1. Песнь 4
2. Песнь 5
3. Песнь 6
4. Кондак «От мирскаго жития изшедше…» (глас 4) [Малый знаменный распев с исоном]
Икос «Како неразумен сый, воспою постников всехвальных…»
5. Песнь 7
6. Песнь 8
7. «Величит душа моя Господа…» [Греческий распев с исоном]
8. Песнь 9
9. «Всякое дыхание да хвалит Господа…» (глас 4**)
10. Стихиры на хвалитех «Дал еси во образ нам благоугождати Тебе, Господи…»
«Творением Господних заповедей и непрестанным молитвы действом…»
«Яко неистощимое сокровище…»
«Радуйся, пустыне, прежде бесплодна и необитаема…» (глас 4)
«Подобен: Дал еси знамение…»*/**
11. «Благодарным сердцем и устнами хвалим Тя, всесильне Господи…» (глас 6**)
12. «Богородичен Богородице, Ты еси лоза истинная…» глас 6 [Знаменный распев с исоном]
13. Великое славословие**
14. Тропарь прпп. Сергию и Герману Валаамским «Евангелия Христова истиннии послушницы…» (глас 4) [Обиходный распев с исоном]
15. Праздничный перезвон

* знаменный распев
** валаамский распев с исоном
Возгласы — иерей Ростислав Перебейнос.
Записано в домашней студии.
EAC log
Exact Audio Copy V0.99 prebeta 5 from 4. May 2009

Отчёт EAC об извлечении, выполненном 17. июня 2011, 10:18

Герман Рябцев / Всенощное бдение-Валаам

Дисковод: ASUS DRW-2014L1T Adapter: 2 ID: 1

Режим чтения : Достоверность
Использование точного потока : Да
Отключение кэша аудио : Да
Использование указателей C2 : Нет

Коррекция смещения при чтении : 6
Способность читать области Lead-in и Lead-out : Нет
Заполнение пропущенных сэмплов тишиной : Да
Удаление блоков с тишиной в начале и конце : Нет
При вычислениях CRC использовались нулевые сэмплы : Да
Интерфейс : Встроенный Win32-интерфейс для Win NT/2000

Выходной формат : Внутренние WAV-операции
Формат сэмплов : 44.100 Гц; 16 бит; стерео

TOC извлечённого CD

Трек | Старт | Длительность | Начальный сектор | Конечный сектор
---------------------------------------------------------------------
1 | 0:00.00 | 0:56.40 | 0 | 4239
2 | 0:56.40 | 8:58.65 | 4240 | 44654
3 | 9:55.30 | 5:23.36 | 44655 | 68915
4 | 15:18.66 | 5:53.70 | 68916 | 95460
5 | 21:12.61 | 1:21.04 | 95461 | 101539
6 | 22:33.65 | 3:50.46 | 101540 | 118835
7 | 26:24.36 | 5:40.45 | 118836 | 144380
8 | 32:05.06 | 2:23.01 | 144381 | 155106
9 | 34:28.07 | 3:31.37 | 155107 | 170968
10 | 37:59.44 | 3:08.28 | 170969 | 185096
11 | 41:07.72 | 6:08.42 | 185097 | 212738
12 | 47:16.39 | 1:24.35 | 212739 | 219073
13 | 48:40.74 | 1:40.21 | 219074 | 226594
14 | 50:21.20 | 2:30.19 | 226595 | 237863
15 | 52:51.39 | 1:42.49 | 237864 | 245562
16 | 54:34.13 | 1:54.12 | 245563 | 254124
17 | 56:28.25 | 2:11.68 | 254125 | 264017
18 | 58:40.18 | 2:07.39 | 264018 | 273581
19 | 60:47.57 | 1:13.40 | 273582 | 279096
20 | 62:01.22 | 0:43.41 | 279097 | 282362
21 | 62:44.63 | 2:09.37 | 282363 | 292074
22 | 64:54.25 | 0:23.52 | 292075 | 293851

Характеристики диапазона извлечения и сообщения об ошибках

Выбранный диапазон

Имя файла C:\Users\Сергей\Desktop\Герман Рябцев - Всенощное бдение-Валаам.wav

Пиковый уровень 96.6 %
Качество диапазона 99.9 %
CRC копии 84E561FC
Копирование... OK

Ошибок не произошло

AccurateRip: сводка
Трек 1 точное извлечение (доверие 1) [B4B2E017]
Трек 2 точное извлечение (доверие 1) [DBE23F9F]
Трек 3 точное извлечение (доверие 1) [389FF81C]
Трек 4 точное извлечение (доверие 1) [6CCEFB96]
Трек 5 точное извлечение (доверие 1) [F9D7B028]
Трек 6 точное извлечение (доверие 1) [5B14F054]
Трек 7 точное извлечение (доверие 1) [746ED4B5]
Трек 8 точное извлечение (доверие 1) [B7C6A67B]
Трек 9 точность не определена (достоверность 1) [590D79D6], AccurateRip вернул [2ABB7674]
Трек 10 точное извлечение (доверие 1) [0DFD9968]
Трек 11 точное извлечение (доверие 1) [5C9A5B0F]
Трек 12 точное извлечение (доверие 1) [388747AA]
Трек 13 точное извлечение (доверие 1) [26870503]
Трек 14 точное извлечение (доверие 1) [E08CF7AD]
Трек 15 точное извлечение (доверие 1) [114E14C1]
Трек 16 точное извлечение (доверие 1) [77EE72E7]
Трек 17 точное извлечение (доверие 1) [AC1AD3C7]
Трек 18 точное извлечение (доверие 1) [6F47403E]
Трек 19 точное извлечение (доверие 1) [53FEA506]
Трек 20 точное извлечение (доверие 1) [1F002EF4]
Трек 21 точное извлечение (доверие 1) [79EB4E3F]
Трек 22 точное извлечение (доверие 1) [FEFB68B9]
21 трек(и) скопированы точно
1 трек(и) не удалось проверить на точность

Некоторые треки не прошли проверку на точность

Конец отчёта

cd2/
Exact Audio Copy V0.99 prebeta 5 from 4. May 2009

Отчёт EAC об извлечении, выполненном 17. июня 2011, 10:29

Герман Рябцев / Всенощное бдение_2

Дисковод: ASUS DRW-2014L1T Adapter: 2 ID: 1

Режим чтения : Достоверность
Использование точного потока : Да
Отключение кэша аудио : Да
Использование указателей C2 : Нет

Коррекция смещения при чтении : 6
Способность читать области Lead-in и Lead-out : Нет
Заполнение пропущенных сэмплов тишиной : Да
Удаление блоков с тишиной в начале и конце : Нет
При вычислениях CRC использовались нулевые сэмплы : Да
Интерфейс : Встроенный Win32-интерфейс для Win NT/2000

Выходной формат : Внутренние WAV-операции
Формат сэмплов : 44.100 Гц; 16 бит; стерео

TOC извлечённого CD

Трек | Старт | Длительность | Начальный сектор | Конечный сектор
---------------------------------------------------------------------
1 | 0:00.00 | 12:22.66 | 0 | 55715
2 | 12:22.66 | 5:22.71 | 55716 | 79936
3 | 17:45.62 | 1:54.00 | 79937 | 88486
4 | 19:39.62 | 1:15.16 | 88487 | 94127
5 | 20:55.03 | 1:08.52 | 94128 | 99279
6 | 22:03.55 | 2:31.04 | 99280 | 110608
7 | 24:34.59 | 6:32.71 | 110609 | 140079
8 | 31:07.55 | 1:32.51 | 140080 | 147030
9 | 32:40.31 | 1:38.34 | 147031 | 154414
10 | 34:18.65 | 1:03.37 | 154415 | 159176
11 | 35:22.27 | 4:38.06 | 159177 | 180032
12 | 40:00.33 | 2:18.33 | 180033 | 190415
13 | 42:18.66 | 2:53.60 | 190416 | 203450
14 | 45:12.51 | 3:05.28 | 203451 | 217353
15 | 48:18.04 | 2:46.68 | 217354 | 229871
16 | 51:04.72 | 2:01.41 | 229872 | 238987

Характеристики диапазона извлечения и сообщения об ошибках

Выбранный диапазон

Имя файла C:\Users\Сергей\Desktop\Герман Рябцев - Всенощное бдение_2.wav

Пиковый уровень 96.6 %
Качество диапазона 99.9 %
CRC копии A0162894
Копирование... OK

Ошибок не произошло

AccurateRip: сводка
Трек 1 точное извлечение (доверие 1) [26C0684A]
Трек 2 точное извлечение (доверие 1) [5C92AD27]
Трек 3 точное извлечение (доверие 1) [A7D9C794]
Трек 4 точное извлечение (доверие 1) [7975150C]
Трек 5 точное извлечение (доверие 1) [65054DE3]
Трек 6 точное извлечение (доверие 1) [6E110ACA]
Трек 7 точное извлечение (доверие 1) [A4E589FC]
Трек 8 точное извлечение (доверие 1) [D6B0626E]
Трек 9 точное извлечение (доверие 1) [33C14E42]
Трек 10 точное извлечение (доверие 1) [09F5A4C1]
Трек 11 точное извлечение (доверие 1) [3C8812BA]
Трек 12 точное извлечение (доверие 1) [188E5186]
Трек 13 точное извлечение (доверие 1) [31608BDD]
Трек 14 точное извлечение (доверие 1) [DAB2351D]
Трек 15 точность не определена (достоверность 1) [8F99D605], AccurateRip вернул [90423DB7]
Трек 16 точное извлечение (доверие 1) [9AC8A3FB]
15 трек(и) скопированы точно
1 трек(и) не удалось проверить на точность

Некоторые треки не прошли проверку на точность

Конец отчёта

cd3/
Exact Audio Copy V0.99 prebeta 5 from 4. May 2009

Отчёт EAC об извлечении, выполненном 17. июня 2011, 10:40

Герман Рябцев / Всенощное бдение-3

Дисковод: ASUS DRW-2014L1T Adapter: 2 ID: 1

Режим чтения : Достоверность
Использование точного потока : Да
Отключение кэша аудио : Да
Использование указателей C2 : Нет

Коррекция смещения при чтении : 6
Способность читать области Lead-in и Lead-out : Нет
Заполнение пропущенных сэмплов тишиной : Да
Удаление блоков с тишиной в начале и конце : Нет
При вычислениях CRC использовались нулевые сэмплы : Да
Интерфейс : Встроенный Win32-интерфейс для Win NT/2000

Выходной формат : Внутренние WAV-операции
Формат сэмплов : 44.100 Гц; 16 бит; стерео

TOC извлечённого CD

Трек | Старт | Длительность | Начальный сектор | Конечный сектор
---------------------------------------------------------------------
1 | 0:00.00 | 2:48.57 | 0 | 12656
2 | 2:48.57 | 3:04.65 | 12657 | 26521
3 | 5:53.47 | 2:59.66 | 26522 | 40012
4 | 8:53.38 | 3:12.53 | 40013 | 54465
5 | 12:06.16 | 3:28.59 | 54466 | 70124
6 | 15:35.00 | 3:53.57 | 70125 | 87656
7 | 19:28.57 | 4:00.57 | 87657 | 105713
8 | 23:29.39 | 3:11.57 | 105714 | 120095
9 | 26:41.21 | 3:22.00 | 120096 | 135245
10 | 30:03.21 | 6:42.23 | 135246 | 165418
11 | 36:45.44 | 2:10.60 | 165419 | 175228
12 | 38:56.29 | 1:53.34 | 175229 | 183737
13 | 40:49.63 | 4:17.13 | 183738 | 203025
14 | 45:07.01 | 1:11.38 | 203026 | 208388
15 | 46:18.39 | 5:51.53 | 208389 | 234766

Характеристики диапазона извлечения и сообщения об ошибках

Выбранный диапазон

Имя файла C:\Users\Сергей\Desktop\Герман Рябцев - Всенощное бдение-3.wav

Пиковый уровень 96.6 %
Качество диапазона 100.0 %
CRC копии 38D349B1
Копирование... OK

Ошибок не произошло

AccurateRip: сводка
Трек 1 точное извлечение (доверие 1) [6451CD6A]
Трек 2 точное извлечение (доверие 1) [F7B197F6]
Трек 3 точное извлечение (доверие 1) [DA9F6295]
Трек 4 точное извлечение (доверие 1) [CAA78F73]
Трек 5 точное извлечение (доверие 1) [1D90AC97]
Трек 6 точное извлечение (доверие 1) [6736114C]
Трек 7 точное извлечение (доверие 1) [2CE42897]
Трек 8 точное извлечение (доверие 1) [92F2E882]
Трек 9 точное извлечение (доверие 1) [CDDE2A01]
Трек 10 точное извлечение (доверие 1) [F9EED4C5]
Трек 11 точное извлечение (доверие 1) [218EF99F]
Трек 12 точное извлечение (доверие 1) [BBB808F0]
Трек 13 точное извлечение (доверие 1) [4A5FDA6D]
Трек 14 точное извлечение (доверие 1) [36A5FD26]
Трек 15 точное извлечение (доверие 1) [5103C588]
Все треки извлечены точно

Конец отчёта
Download

Войдите для скачивания торрент-файла

Как скачивать  ·   Правила трекера

[Профиль]  [ЛС] 

Ilitch

Стаж: 8 лет 1 месяц

Сообщений: 18

Откуда: Кострома

Russia

post 19-Июн-2011 17:55 (спустя 2 дня 6 часов)

[Цитировать] 

УРА! Smile
[Профиль]  [ЛС] 

serpantin04

Стаж: 5 лет 3 месяца

Сообщений: 81

Belarus

post 15-Июн-2014 12:35 (спустя 2 года 11 месяцев)

[Цитировать] 

Спаси Христос!
[Профиль]  [ЛС] 

Diderik

Стаж: 6 лет 2 месяца

Сообщений: 9

Russia

post 15-Авг-2014 18:21 (спустя 2 месяца)

[Цитировать] 

Спаси Господи!

_________________
Слава Богу за всё.
[Профиль]  [ЛС] 

Alex Sag

Стаж: 7 лет 9 месяцев

Сообщений: 270

Kazakhstan

post 20-Сен-2014 08:53 (спустя 1 месяц 4 дня)

[Цитировать] 

Благодарю! Спаси Господи!

_________________
Alexey
[Профиль]  [ЛС] 

CEPBEP4

Стаж: 6 лет

Сообщений: 133

Откуда: ОРЕНБУРГ

Russia

post 07-Июн-2015 13:09 (спустя 8 месяцев)

[Цитировать] 

Спасибо! Скажите а надпись в логе: Некоторые треки не прошли проверку на точность
не повлияет сильно на звук?

_________________
pic
pic 100 Мбит/с pic 100 Мбит/с pic
[Профиль]  [ЛС] 
Показать сообщения:    
Ответить на тему

Текущее время: 28-Фев 02:36

Часовой пояс: GMT + 4



Вы не можете начинать темы
Вы не можете отвечать на сообщения
Вы не можете редактировать свои сообщения
Вы не можете удалять свои сообщения
Вы не можете голосовать в опросах
Вы не можете прикреплять файлы к сообщениям
Вы не можете скачивать файлы