Loading...
Error

(Церковная музыка Греции, Афона и Сербии (lossless).) "Пасхальная коллекция". (Live from Jerusalem). - 1999, APE (image + .cue), lossless

Ответить на тему
Статистика раздачи
   
 
Автор Сообщение

СЕРГУЛЕТ

Стаж: 8 лет 8 месяцев

Сообщений: 2640

Откуда: LA ROMANA

Dominicanrep

post 23-Апр-2011 11:01

[Цитировать] 

"Пасхальная коллекция". (Live from Jerusalem).

pic
Страна: Израиль. "Holyland Records LTD".
Жанр: Церковная музыка Греции, Афона и Сербии (lossless).
Год выпуска: 1999
Формат: APE (image + .cue)
Битрейт аудио: lossless
Продолжительность: 01:02:34
Содержание+ Обложки
picpic
EAC log
Exact Audio Copy V1.0 beta 1 from 15. November 2010

Отчёт EAC об извлечении, выполненном 22. апреля 2011, 10:27

Various / Easter collection

Дисковод: HL-DT-STDVDRAM GE20NU10 Adapter: 5 ID: 1

Режим чтения : Достоверность
Использование точного потока : Да
Отключение кэша аудио : Да
Использование указателей C2 : Нет

Коррекция смещения при чтении : 667
Способность читать области Lead-in и Lead-out : Нет
Заполнение пропущенных сэмплов тишиной : Да
Удаление блоков с тишиной в начале и конце : Нет
При вычислениях CRC использовались нулевые сэмплы : Да
Интерфейс : Встроенный Win32-интерфейс для Win NT/2000

Выходной формат : Внутренние WAV-операции
Формат сэмплов : 44.100 Гц; 16 бит; стерео

TOC извлечённого CD

Трек | Старт | Длительность | Начальный сектор | Конечный сектор
---------------------------------------------------------------------
1 | 0:00.00 | 4:10.66 | 0 | 18815
2 | 4:10.66 | 1:11.73 | 18816 | 24213
3 | 5:22.64 | 7:18.40 | 24214 | 57103
4 | 12:41.29 | 2:28.61 | 57104 | 68264
5 | 15:10.15 | 3:58.14 | 68265 | 86128
6 | 19:08.29 | 11:24.45 | 86129 | 137473
7 | 30:32.74 | 4:33.10 | 137474 | 157958
8 | 35:06.09 | 4:06.51 | 157959 | 176459
9 | 39:12.60 | 12:12.39 | 176460 | 231398
10 | 51:25.24 | 9:38.46 | 231399 | 274794

Характеристики диапазона извлечения и сообщения об ошибках

Выбранный диапазон

Имя файла C:\Users\Ирина\Desktop\Various - Easter collection.wav

Пиковый уровень 91.4 %
Скорость извлечения 1.2 X
Качество диапазона 100.0 %
CRC копии 11106D70
Копирование... OK

Ошибок не произошло

Конец отчёта
Дополнительная информация: Диск №38 из серии "Chants from the Holy", выпущенных в Израиле к 2000 Рождества Христова.
Всего было выпущено 40 CD...
Download

Войдите на сайт, чтобы увидеть полную информацию.

Как скачивать  ·   Правила трекера

[Профиль]  [ЛС] 

Perezvon

Стаж: 6 лет 7 месяцев

Сообщений: 4

Ukraine

post 24-Апр-2011 05:46 (спустя 18 часов)

[Цитировать] 

Христос Воскресе!!!! Smile
[Профиль]  [ЛС] 

Странник1

Стаж: 7 лет 10 месяцев

Сообщений: 2308

Russia

post 02-Май-2011 22:57 (спустя 8 дней)

[Цитировать] 

Благодарю
[Профиль]  [ЛС] 
Показать сообщения:    
Ответить на тему

Текущее время: 23-Окт 02:33

Часовой пояс: GMT + 4



Вы не можете начинать темы
Вы не можете отвечать на сообщения
Вы не можете редактировать свои сообщения
Вы не можете удалять свои сообщения
Вы не можете голосовать в опросах
Вы не можете прикреплять файлы к сообщениям
Вы не можете скачивать файлы