Loading...
Error

(Церковная музыка и церковные хоры (lossless).) "Малый молебный канон". Как поётся на Святой Горе Афон. Живая запись. - 2003, APE (image + .cue), lossless

Ответить на тему
Статистика раздачи
   
 
Автор Сообщение

СЕРГУЛЕТ

Стаж: 8 лет 7 месяцев

Сообщений: 2640

Откуда: LA ROMANA

Dominicanrep

post 22-Окт-2009 22:08

[Цитировать] 

"Малый молебный канон". Как поётся на Святой Горе Афон. Живая запись.

pic
Страна: Греция.
Жанр: Церковная музыка и церковные хоры (lossless).
Год выпуска: 2003
Формат: APE (image + .cue)
Битрейт аудио: lossless
Продолжительность: 01:00:56.
Трэклист:
1. Благословен Бог наш
2. Псалом 142
3. Бог Господь… К Богородице прилежно…
Не умолчим никогда…
4. Псалом 50
5. Канон. Песни 1, 3
6. Ектения
7. Седален
8. Песни 4, 5, 6
9. Ектения
10. Кондак
11. Прокимен
12. Евангелие.
13. Слава… И ныне… Не ввери мя…
14. Спаси, Боже, люди Твоя…
15. Песни 7, 8, 9
16. Богородичны
17. Трисвятое. тропарь
18. Ектения
19. Отпуст
20. Всех предстательствуеши...
21. Молитвами святых отец наших…
Обложки+Содержание
picpicpic
EAC log
Exact Audio Copy V0.99 prebeta 5 from 4. May 2009

Отчёт EAC об извлечении, выполненном 22. октября 2009, 6:59

Св. Гора Афон / Малый Молебный Канон

Дисковод: ASUS BC-1205PT Adapter: 1 ID: 0

Режим чтения : Достоверность
Использование точного потока : Да
Отключение кэша аудио : Да
Использование указателей C2 : Нет

Коррекция смещения при чтении : 667
Способность читать области Lead-in и Lead-out : Нет
Заполнение пропущенных сэмплов тишиной : Да
Удаление блоков с тишиной в начале и конце : Нет
При вычислениях CRC использовались нулевые сэмплы : Да
Интерфейс : Встроенный Win32-интерфейс для Win NT/2000

Выходной формат : Внутренние WAV-операции
Формат сэмплов : 44.100 Гц; 16 бит; стерео

TOC извлечённого CD

Трек | Старт | Длительность | Начальный сектор | Конечный сектор
---------------------------------------------------------------------
1 | 0:00.00 | 0:18.43 | 0 | 1392
2 | 0:18.43 | 1:12.12 | 1393 | 6804
3 | 1:30.55 | 2:50.17 | 6805 | 19571
4 | 4:20.72 | 1:47.37 | 19572 | 27633
5 | 6:08.34 | 5:48.62 | 27634 | 53795
6 | 11:57.21 | 1:01.42 | 53796 | 58412
7 | 12:58.63 | 0:54.26 | 58413 | 62488
8 | 13:53.14 | 7:41.67 | 62489 | 97130
9 | 21:35.06 | 1:00.43 | 97131 | 101673
10 | 22:35.49 | 1:14.04 | 101674 | 107227
11 | 23:49.53 | 3:01.30 | 107228 | 120832
12 | 26:51.08 | 4:31.02 | 120833 | 141159
13 | 31:22.10 | 3:59.28 | 141160 | 159112
14 | 35:21.38 | 3:32.63 | 159113 | 175075
15 | 38:54.26 | 6:29.47 | 175076 | 204297
16 | 45:23.73 | 5:56.69 | 204298 | 231066
17 | 51:20.67 | 2:39.33 | 231067 | 243024
18 | 54:00.25 | 2:43.11 | 243025 | 255260
19 | 56:43.36 | 0:46.59 | 255261 | 258769
20 | 57:30.20 | 2:58.49 | 258770 | 272168
21 | 60:28.69 | 0:22.54 | 272169 | 273872

Характеристики диапазона извлечения и сообщения об ошибках

Выбранный диапазон

Имя файла C:\Св. Гора Афон - Малый Молебный Канон.wav

Пиковый уровень 92.2 %
Качество диапазона 100.0 %
CRC копии A4ADA730
Копирование... OK

Ошибок не произошло
Конец отчёта
Download

Войдите на сайт, чтобы увидеть полную информацию.

Как скачивать  ·   Правила трекера

[Профиль]  [ЛС] 

anastasy

post 09-Мар-2011 04:31 (спустя 1 год 4 месяца)

[Цитировать] 

spasi Gospodi
 
Показать сообщения:    
Ответить на тему

Текущее время: 22-Сен 22:54

Часовой пояс: GMT + 4



Вы не можете начинать темы
Вы не можете отвечать на сообщения
Вы не можете редактировать свои сообщения
Вы не можете удалять свои сообщения
Вы не можете голосовать в опросах
Вы не можете прикреплять файлы к сообщениям
Вы не можете скачивать файлы