Loading...
Error

(Церковная музыка и церковные хоры (lossless).) "Великий Канон Преподобного Андрея Критского. Великое Повечерие". Хор Новоспасского монастыря. - 2005, APE (image + .cue), lossless

Ответить на тему
Статистика раздачи
Скачали: [ 7 ]
   
 
Автор Сообщение

СЕРГУЛЕТ

Стаж: 7 лет 9 месяцев

Сообщений: 2639

Откуда: LA ROMANA

Dominicanrep

post 19-Окт-2009 23:02

[Цитировать] 

"Великий Канон Преподобного Андрея Критского. Великое Повечерие". Хор Новоспасского монастыря.

pic
Страна: Россия. Новоспасский монастырь.
Жанр: Церковная музыка и церковные хоры (lossless).
Год выпуска: 2005
Формат: APE (image + .cue)
Битрейт аудио: lossless
Продолжительность: 01:02:16
Обложки+Содержание
picpic
Дополнительная информация: Хор Новоспасского монастыря под управлением Леонида Баклушина.
Запись произведена в Покровском храме Новоспасского монастыря во время богослужения на первой седмице Великого Поста 14-17 марта 2005 года.
EAC log
Exact Audio Copy V0.99 prebeta 5 from 4. May 2009

Отчёт EAC об извлечении, выполненном 19. октября 2009, 20:02

Хор Новоспасского монастыря / Великое повечерие

Дисковод: ASUS BC-1205PT Adapter: 1 ID: 0

Режим чтения : Достоверность
Использование точного потока : Да
Отключение кэша аудио : Да
Использование указателей C2 : Нет

Коррекция смещения при чтении : 667
Способность читать области Lead-in и Lead-out : Нет
Заполнение пропущенных сэмплов тишиной : Да
Удаление блоков с тишиной в начале и конце : Нет
При вычислениях CRC использовались нулевые сэмплы : Да
Интерфейс : Встроенный Win32-интерфейс для Win NT/2000

Выходной формат : Внутренние WAV-операции
Формат сэмплов : 44.100 Гц; 16 бит; стерео

TOC извлечённого CD

Трек | Старт | Длительность | Начальный сектор | Конечный сектор
---------------------------------------------------------------------
1 | 0:00.00 | 3:49.57 | 0 | 17231
2 | 3:49.57 | 3:30.40 | 17232 | 33021
3 | 7:20.22 | 2:28.19 | 33022 | 44140
4 | 9:48.41 | 5:29.73 | 44141 | 68888
5 | 15:18.39 | 3:29.48 | 68889 | 84611
6 | 18:48.12 | 3:12.41 | 84612 | 99052
7 | 22:00.53 | 4:20.63 | 99053 | 118615
8 | 26:21.41 | 4:31.15 | 118616 | 138955
9 | 30:52.56 | 4:21.15 | 138956 | 158545
10 | 35:13.71 | 6:35.47 | 158546 | 188217
11 | 41:49.43 | 5:46.36 | 188218 | 214203
12 | 47:36.04 | 2:39.73 | 214204 | 226201
13 | 50:16.02 | 3:14.08 | 226202 | 240759
14 | 53:30.10 | 6:21.38 | 240760 | 269372
15 | 59:51.48 | 1:21.12 | 269373 | 275459
16 | 61:12.60 | 1:03.37 | 275460 | 280221

Характеристики диапазона извлечения и сообщения об ошибках

Выбранный диапазон

Имя файла C:\Хор Новоспасского монастыря - Великое повечерие.wav

Пиковый уровень 84.2 %
Качество диапазона 100.0 %
CRC копии 1F2AA662
Копирование... OK

Ошибок не произошло
Конец отчёта
Download

Войдите для скачивания торрент-файла

Как скачивать  ·   Правила трекера

[Профиль]  [ЛС] 

Yuri_mer

Стаж: 5 лет 9 месяцев

Сообщений: 6

post 21-Фев-2011 22:26 (спустя 1 год 4 месяца)

[Цитировать] 

Спаси Господи.
[Профиль]  [ЛС] 

света1970

Стаж: 6 лет

Сообщений: 122

Russia

post 08-Мар-2011 15:09 (спустя 14 дней)

[Цитировать] 

благодарю
[Профиль]  [ЛС] 

ded195413

Стаж: 6 лет 10 месяцев

Сообщений: 14

Откуда: Украина

Ukraine

post 08-Мар-2011 22:50 (спустя 7 часов)

[Цитировать] 

спасибо

_________________
http://svavva.ru/
[Профиль]  [ЛС] 

absintio

Стаж: 5 лет 8 месяцев

Сообщений: 5

post 15-Мар-2011 17:41 (спустя 6 дней)

[Цитировать] 

Спаси Господи!
[Профиль]  [ЛС] 

олег_84

Стаж: 5 лет 8 месяцев

Сообщений: 18

Ukraine

post 29-Мар-2011 21:02 (спустя 14 дней)

[Цитировать] 

благодарю !
[Профиль]  [ЛС] 

ella_18

Стаж: 7 лет

Сообщений: 5

post 13-Окт-2011 18:16 (спустя 6 месяцев)

[Цитировать] 

Спаси Господи.
[Профиль]  [ЛС] 
Показать сообщения:    
Ответить на тему

Текущее время: 08-Дек 00:15

Часовой пояс: GMT + 4



Вы не можете начинать темы
Вы не можете отвечать на сообщения
Вы не можете редактировать свои сообщения
Вы не можете удалять свои сообщения
Вы не можете голосовать в опросах
Вы не можете прикреплять файлы к сообщениям
Вы не можете скачивать файлы