Loading...
Error

(Грузинские церковные песнопения) Певчие собора святого Пантелеймона-Целителя - Грузинские церковные песнопения - 1999, FLAC (image + .cue), lossless

Ответить на тему
Статистика раздачи
Скачали: [ 17 ]
   
 
Автор Сообщение

etrusk

Стаж: 6 лет 8 месяцев

Сообщений: 128

Russia

post 04-Мар-2011 14:17

[Цитировать] 

Певчие собора святого Пантелеймона-Целителя - Грузинские церковные песнопения

pic
Страна: Россия
Жанр: Грузинские церковные песнопения
Год выпуска: 1999
Формат: FLAC (image + .cue)
Битрейт аудио: lossless
Продолжительность: 0:30:31
Трэклист:
1. Кристэ агсдга (Христос воскресе) - 3:42
2. Цминдао гмерто (Святый Боже) - 1:41
3. Гирс арс да мартал (Милость мира) - 1:11
4. Шен хар венахи (Ты еси лоза) - 2:21
5. Гвиргвини мклавман (Ямбик св. Давиду Агмашенебели) - 2:11
6. Згва мецамлули (Моисей жезлом своим) - 1:37
7. Адидэбс сули чеми (Величит душа моя Господа) - 1:06
8. Алило (Рождественская) - 1:31
9. Цминдао, цминдао (Свят, свят) - 2:24
10. Упало гагад вкав (Господи возвах) - 3:10
11. Ангелози гагадебс (Ангел вопияше) - 1:38
12. Ац ковлитурт агивсо (Преисполнен благодати) - 1:25
13. Ац ганутэвэ (Ныне отпущаеши) - 2:26
14. Шобаман шенман (Рождество Твое) - 1:58
15. Гурули зари (Песня плач причитание) - 2:10
Дополнительная информация:
Исполнители: Джимшелейшвили Бадри (регент), Кутидзе Варлам, Гваберидзе Папуна, Махарашвили Малхаз.
Предлагается второй альбом группы певчих собора св. Пантелеймона в Тбилиси (первый альбом с таким же названием вышел в 1996 году).
Рекомендуется интересующимся грузинским многоголосным пением.
EAC log
Exact Audio Copy V0.99 prebeta 5 from 4. May 2009

Отчёт EAC об извлечении, выполненном 2. марта 2011, 0:44

Chanters group of the Church St. Panteleimon the Healer / Georgian Chants

Дисковод: Optiarc DVD RW AD-7200S Adapter: 5 ID: 0

Режим чтения : Достоверность
Использование точного потока : Да
Отключение кэша аудио : Да
Использование указателей C2 : Нет

Коррекция смещения при чтении : 48
Способность читать области Lead-in и Lead-out : Нет
Заполнение пропущенных сэмплов тишиной : Да
Удаление блоков с тишиной в начале и конце : Нет
При вычислениях CRC использовались нулевые сэмплы : Да
Интерфейс : Встроенный Win32-интерфейс для Win NT/2000

Выходной формат : Внутренние WAV-операции
Формат сэмплов : 44.100 Гц; 16 бит; стерео

TOC извлечённого CD

Трек | Старт | Длительность | Начальный сектор | Конечный сектор
---------------------------------------------------------------------
1 | 0:00.00 | 3:41.39 | 0 | 16613
2 | 3:41.39 | 1:41.04 | 16614 | 24192
3 | 5:22.43 | 1:10.70 | 24193 | 29512
4 | 6:33.38 | 2:20.51 | 29513 | 40063
5 | 8:54.14 | 2:10.66 | 40064 | 49879
6 | 11:05.05 | 1:37.06 | 49880 | 57160
7 | 12:42.11 | 1:06.00 | 57161 | 62110
8 | 13:48.11 | 1:31.33 | 62111 | 68968
9 | 15:19.44 | 2:23.71 | 68969 | 79764
10 | 17:43.40 | 3:10.29 | 79765 | 94043
11 | 20:53.69 | 1:37.49 | 94044 | 101367
12 | 22:31.43 | 1:25.07 | 101368 | 107749
13 | 23:56.50 | 2:25.74 | 107750 | 118698
14 | 26:22.49 | 1:57.50 | 118699 | 127523
15 | 28:20.24 | 2:10.18 | 127524 | 137291

Характеристики диапазона извлечения и сообщения об ошибках

Выбранный диапазон

Имя файла K:\Audio\Spiritual_Religious_Chants\Грузия\Собор св. Пантелеймона\1999 - Georgian Chants\Chanters group of the Church St. Panteleimon the Healer - Georgian Chants.wav

Пиковый уровень 66.6 %
Качество диапазона 99.9 %
CRC теста 27A89401
CRC копии 27A89401
Копирование... OK

Ошибок не произошло

AccurateRip: сводка
Трек 1 нет в базе данных
Трек 2 нет в базе данных
Трек 3 нет в базе данных
Трек 4 нет в базе данных
Трек 5 нет в базе данных
Трек 6 нет в базе данных
Трек 7 нет в базе данных
Трек 8 нет в базе данных
Трек 9 нет в базе данных
Трек 10 нет в базе данных
Трек 11 нет в базе данных
Трек 12 нет в базе данных
Трек 13 нет в базе данных
Трек 14 нет в базе данных
Трек 15 нет в базе данных
Ни одного трека нет в базе AccurateRip

Конец отчёта
Download

Войдите для скачивания торрент-файла

Как скачивать  ·   Правила трекера

[Профиль]  [ЛС] 

Mouse Fitzgerald

post 17-Июл-2012 00:43 (спустя 1 год 4 месяца)

[Цитировать] 

Спасибо!
 

Aleksiy Novikov

Стаж: 2 года

Сообщений: 142

Russia

post 22-Ноя-2015 22:12 (спустя 3 года 4 месяца)

[Цитировать] 

Премного Вас благодарю!

_________________
"Но когда надеемся того, чего не видим, тогда ожидаем в терпении" (Рим. 8;25)
[Профиль]  [ЛС] 

Сергей Соколов

Стаж: 2 года 2 месяца

Сообщений: 5

Russia

post 26-Фев-2017 02:06 (спустя 1 год 3 месяца)

[Цитировать] 

Благодарю.
[Профиль]  [ЛС] 

cve3nik

Стаж: 5 лет 3 месяца

Сообщений: 4

Откуда: ставрополь

Russia

post 14-Мар-2017 23:12 (спустя 16 дней)

[Цитировать] 

Добрый вечер. Подскажите пожалуйста, а какой проигрыватель необходимо установить, чтобы можно было прослушать файл. Потому как ни один из файлов, проигрыватель Windows media не знает(
[Профиль]  [ЛС] 
Показать сообщения:    
Ответить на тему

Текущее время: 29-Май 00:15

Часовой пояс: GMT + 4



Вы не можете начинать темы
Вы не можете отвечать на сообщения
Вы не можете редактировать свои сообщения
Вы не можете удалять свои сообщения
Вы не можете голосовать в опросах
Вы не можете прикреплять файлы к сообщениям
Вы не можете скачивать файлы