Loading...
Error

(Церковная музыка Греции, Афона и Сербии (lossless)) "Параклисис Божией Матери". Хор монахов монастыря Симонопетра. Святая Гора Афон. - 2004, APE (image + .cue), lossless

Ответить на тему
Статистика раздачи
Скачали: [ 8 ]
   
 
Автор Сообщение

СЕРГУЛЕТ

Стаж: 7 лет 9 месяцев

Сообщений: 2639

Откуда: LA ROMANA

Dominicanrep

post 22-Дек-2009 09:11

[Цитировать] 

"Параклисис Божией Матери". Хор монахов монастыря Симонопетра. Святая Гора Афон.

pic
Страна: Россия. ООО "Дисам".
Жанр: Церковная музыка Греции, Афона и Сербии (lossless)
Год выпуска: 2004
Формат: APE (image + .cue)
Битрейт аудио: lossless
Продолжительность: 01:01:59
Обложки+Содержание
picpicpic
EAC log
Exact Audio Copy V0.99 prebeta 5 from 4. May 2009

Отчёт EAC об извлечении, выполненном 21. декабря 2009, 21:00

Симонопетр / Параклисис

Дисковод: ASUS BC-1205PT Adapter: 1 ID: 0

Режим чтения : Достоверность
Использование точного потока : Да
Отключение кэша аудио : Да
Использование указателей C2 : Нет

Коррекция смещения при чтении : 667
Способность читать области Lead-in и Lead-out : Нет
Заполнение пропущенных сэмплов тишиной : Да
Удаление блоков с тишиной в начале и конце : Нет
При вычислениях CRC использовались нулевые сэмплы : Да
Интерфейс : Встроенный Win32-интерфейс для Win NT/2000

Выходной формат : Внутренние WAV-операции
Формат сэмплов : 44.100 Гц; 16 бит; стерео

TOC извлечённого CD

Трек | Старт | Длительность | Начальный сектор | Конечный сектор
---------------------------------------------------------------------
1 | 0:00.00 | 1:43.06 | 0 | 7730
2 | 1:43.06 | 1:22.13 | 7731 | 13893
3 | 3:05.19 | 2:33.28 | 13894 | 25396
4 | 5:38.47 | 1:57.17 | 25397 | 34188
5 | 7:35.64 | 4:05.39 | 34189 | 52602
6 | 11:41.28 | 2:12.10 | 52603 | 62512
7 | 13:53.38 | 5:59.06 | 62513 | 89443
8 | 19:52.44 | 2:23.54 | 89444 | 100222
9 | 22:16.23 | 4:11.30 | 100223 | 119077
10 | 26:27.53 | 5:41.66 | 119078 | 144718
11 | 32:09.44 | 8:38.52 | 144719 | 183620
12 | 40:48.21 | 5:10.14 | 183621 | 206884
13 | 45:58.35 | 2:35.16 | 206885 | 218525
14 | 48:33.51 | 13:23.45 | 218526 | 278795

Характеристики диапазона извлечения и сообщения об ошибках

Выбранный диапазон

Имя файла C:\Симонопетр - Параклисис.wav

Пиковый уровень 99.6 %
Качество диапазона 100.0 %
CRC копии 9428FFB9
Копирование... OK

Ошибок не произошло

AccurateRip: сводка
Трек 1 нет в базе данных
Трек 2 нет в базе данных
Трек 3 нет в базе данных
Трек 4 нет в базе данных
Трек 5 нет в базе данных
Трек 6 нет в базе данных
Трек 7 нет в базе данных
Трек 8 нет в базе данных
Трек 9 нет в базе данных
Трек 10 нет в базе данных
Трек 11 нет в базе данных
Трек 12 нет в базе данных
Трек 13 нет в базе данных
Трек 14 нет в базе данных
Ни одного трека нет в базе AccurateRip

Конец отчёта
Download

Войдите для скачивания торрент-файла

Как скачивать  ·   Правила трекера

[Профиль]  [ЛС] 

vad64

post 22-Дек-2010 22:43 (спустя 1 год)

[Цитировать] 

Скачать скачал, но ничем не могу открыть чтоб послушать.
 

mstomin

post 02-Янв-2011 14:51 (спустя 10 дней)

[Цитировать] 

vad64

проблема в наличии кодека.

Я установил аудиоплеер foobar2000 (от автора winamp), он поддерживает почти все форматы аудиофайлов. можно закачать и сборки этой программы.

Перешёл на фубар2000 более года - аскетичный удобный интерфейс, ничего лишнего.

скачать можно с этого сайта: www. foobar2000. org (убрать пробелы после точек)
 

vika010288

Стаж: 7 лет 5 месяцев

Сообщений: 459

Georgia

post 02-Янв-2011 18:48 (спустя 3 часа)

[Цитировать] 

Спаси вас Господи!давно икал я этот Параклисис.Кстати фаил можно открить медиаплейером.
[Профиль]  [ЛС] 

ikonoaleks

Стаж: 18 дней

Сообщений: 2

Georgia

post 18-Ноя-2016 23:52 (спустя 5 лет 10 месяцев)

[Цитировать] 

Спасибо!

_________________
Каждый желающий спастись должен не только не делать зла, но обязан делать добро, как сказано в Священном Писании: Уклонися от зла и сотвори благо (Пс. 33:15).

Преподобный авва Дорофей
[Профиль]  [ЛС] 
Показать сообщения:    
Ответить на тему

Текущее время: 07-Дек 01:56

Часовой пояс: GMT + 4



Вы не можете начинать темы
Вы не можете отвечать на сообщения
Вы не можете редактировать свои сообщения
Вы не можете удалять свои сообщения
Вы не можете голосовать в опросах
Вы не можете прикреплять файлы к сообщениям
Вы не можете скачивать файлы