Loading...
Error

(Церковная музыка и церковные хоры (lossless).) "Всенощное бдение". Поют сестры Свято-Елисаветинского монастыря". - 2006, APE (image + .cue), lossless

Ответить на тему
Статистика раздачи
Качают: [ 1 ]
Скачали: [ 17 ]
   
 
Автор Сообщение

СЕРГУЛЕТ

Стаж: 8 лет

Сообщений: 2639

Откуда: LA ROMANA

Dominicanrep

post 21-Ноя-2009 16:25

[Цитировать] 

"Всенощное бдение". Поют сестры Свято-Елисаветинского монастыря".

pic
Страна: Беларусь. Свято-Елисаветинский монастырь.
Жанр: Церковная музыка и церковные хоры (lossless).
Год выпуска: 2006
Формат: APE (image + .cue)
Битрейт аудио: lossless
Продолжительность: 00:43:00
Содержание: Поем Господеви:
1. Предначинательный псалом. Греческий распев.4:41
2. Блажен муж. Валаамский распев. 5:11
3. Свете тихий. Валаамский распев.1:59
4. Ныне отпущаеши. Киевский распев. 1:12
5. Богородице Дево, радуйся.Кремлевское.0:50
6. Ектения на литии. Греческий распев. 1:18
7. Бог Господь. Глас 1 -й. Обиход. 1:38
8. Хвалите Имя Господне. Валаамский распев. 5:38
9. Величание св. прмц. Елисавете. Соловецкий распев.0:50
10. Ангельский собор. Знаменный распев. 3:31
11. От юности моея. Византийский распев. 2:07
12. По 50-м псалме стихира. Глас 6-й. Обиход. 2:10
13. Канон Воздвижение Креста Господня.Ирмосы 8-го гласа.0:51
14. Ирмос 3. 0:34
15. Ирмос 5 0:49
16. Ирмос 7 0:44
17. Великое славословие. Византийский распев. 4:25
18. Взбранной Воеводе. Болгарский распев. 0:58
19. Многолетие. 0:49
20. Иисусова молитва. 2:35
Содержание+Обложки
picpic
EAC log
Exact Audio Copy V0.99 prebeta 5 from 4. May 2009

Отчёт EAC об извлечении, выполненном 20. ноября 2009, 18:29

Хор сестер Свято-Елисаветинского монастыря города Минска / Всенощное бдение

Дисковод: ASUS BC-1205PT Adapter: 1 ID: 0

Режим чтения : Достоверность
Использование точного потока : Да
Отключение кэша аудио : Да
Использование указателей C2 : Нет

Коррекция смещения при чтении : 667
Способность читать области Lead-in и Lead-out : Нет
Заполнение пропущенных сэмплов тишиной : Да
Удаление блоков с тишиной в начале и конце : Нет
При вычислениях CRC использовались нулевые сэмплы : Да
Интерфейс : Встроенный Win32-интерфейс для Win NT/2000

Выходной формат : Внутренние WAV-операции
Формат сэмплов : 44.100 Гц; 16 бит; стерео

TOC извлечённого CD

Трек | Старт | Длительность | Начальный сектор | Конечный сектор
---------------------------------------------------------------------
1 | 0:00.00 | 4:41.47 | 0 | 21121
2 | 4:41.47 | 5:11.23 | 21122 | 44469
3 | 9:52.70 | 1:59.38 | 44470 | 53432
4 | 11:52.33 | 1:12.56 | 53433 | 58888
5 | 13:05.14 | 0:50.29 | 58889 | 62667
6 | 13:55.43 | 1:18.10 | 62668 | 68527
7 | 15:13.53 | 1:38.50 | 68528 | 75927
8 | 16:52.28 | 5:38.02 | 75928 | 101279
9 | 22:30.30 | 0:50.31 | 101280 | 105060
10 | 23:20.61 | 3:31.72 | 105061 | 120957
11 | 26:52.58 | 2:07.30 | 120958 | 130512
12 | 29:00.13 | 2:10.10 | 130513 | 140272
13 | 31:10.23 | 0:51.40 | 140273 | 144137
14 | 32:01.63 | 0:34.54 | 144138 | 146741
15 | 32:36.42 | 0:49.57 | 146742 | 150473
16 | 33:26.24 | 0:44.66 | 150474 | 153839
17 | 34:11.15 | 4:25.14 | 153840 | 173728
18 | 38:36.29 | 0:58.03 | 173729 | 178081
19 | 39:34.32 | 0:49.15 | 178082 | 181771
20 | 40:23.47 | 2:35.00 | 181772 | 193396

Характеристики диапазона извлечения и сообщения об ошибках

Выбранный диапазон

Имя файла C:\Хор сестер Свято-Елисаветинского монастыря города Минска - Всенощное бдение.wav

Пиковый уровень 82.7 %
Качество диапазона 100.0 %
CRC копии E8E87355
Копирование... OK

Ошибок не произошло
Download

Войдите для скачивания торрент-файла

Как скачивать  ·   Правила трекера

[Профиль]  [ЛС] 

neof1t

post 18-Мар-2010 13:08 (спустя 3 месяца 26 дней)

[Цитировать] 

Спаси Господи, скачаем!
 

Андрей Игогревич

post 12-Май-2010 12:07 (спустя 1 месяц 24 дня)

[Цитировать] 

Спаси Господи!
 

brd_eugene

Стаж: 8 лет 2 месяца

Сообщений: 64

Ukraine

post 02-Авг-2010 10:05 (спустя 2 месяца 20 дней)

[Цитировать] 

СпасиБо!
[Профиль]  [ЛС] 

sinner7

Стаж: 6 лет 8 месяцев

Сообщений: 242

post 13-Окт-2010 22:26 (спустя 2 месяца 11 дней)

[Цитировать] 

Спаси Господи
[Профиль]  [ЛС] 

+Сергей+

Стаж: 6 лет 2 месяца

Сообщений: 225

Откуда: Москва

Russia

post 28-Дек-2010 19:40 (спустя 2 месяца 14 дней)

[Цитировать] 

Благодарю.
[Профиль]  [ЛС] 

anutkich

post 28-Фев-2012 20:44 (спустя 1 год 2 месяца)

[Цитировать] 

Спасибо!
 

a1bllll

Стаж: 6 лет

Сообщений: 308

Russia

post 24-Май-2012 18:25 (спустя 2 месяца 24 дня)

[Цитировать] 

Спаси вас Бог!

_________________
Слава Богу за всё!
[Профиль]  [ЛС] 

stepan-frunze

Стаж: 7 лет 11 месяцев

Сообщений: 2565

Russia

post 20-Июн-2013 03:47 (спустя 1 год)

[Цитировать] 

СпасиБо!
[Профиль]  [ЛС] 

Aleksiy Novikov

Стаж: 1 год 9 месяцев

Сообщений: 141

Russia

post 22-Ноя-2015 22:09 (спустя 2 года 5 месяцев)

[Цитировать] 

Спаси Вас Христос Бог!

_________________
"Но когда надеемся того, чего не видим, тогда ожидаем в терпении" (Рим. 8;25)
[Профиль]  [ЛС] 
Показать сообщения:    
Ответить на тему

Текущее время: 26-Фев 00:28

Часовой пояс: GMT + 4



Вы не можете начинать темы
Вы не можете отвечать на сообщения
Вы не можете редактировать свои сообщения
Вы не можете удалять свои сообщения
Вы не можете голосовать в опросах
Вы не можете прикреплять файлы к сообщениям
Вы не можете скачивать файлы