Loading...
Error

(Церковная музыка и церковные хоры (lossless).) "Agni Parthene". "Агни Парфене". Хор монастыря "Симонопетр". Святая Гора Афон. - 1990, APE (image + .cue), lossless

Страницы:  1, 2  След.

Ответить на тему
Статистика раздачи
Скачали: [ 15 ]
   
 
Автор Сообщение

СЕРГУЛЕТ

Стаж: 8 лет 3 месяца

Сообщений: 2639

Откуда: LA ROMANA

Dominicanrep

post 30-Ноя-2009 23:13

[Цитировать] 

"Agni Parthene". "Агни Парфене". Хор монастыря "Симонопетр". Святая Гора Афон.

pic
Страна: Греция.
Жанр: Церковная музыка и церковные хоры (lossless).
Год выпуска: 1990
Формат: APE (image + .cue)
Битрейт аудио: lossless
Продолжительность: 01:10:48
Содержание+Обложки
picpicpic
Дополнительная информация:
EAC log
Exact Audio Copy V0.99 prebeta 5 from 4. May 2009

Отчёт EAC об извлечении, выполненном 30. ноября 2009, 16:59

Monks of Simonopetra / AGNЙ PARTHENЙ

Дисковод: ASUS BC-1205PT Adapter: 1 ID: 0

Режим чтения : Достоверность
Использование точного потока : Да
Отключение кэша аудио : Да
Использование указателей C2 : Нет

Коррекция смещения при чтении : 667
Способность читать области Lead-in и Lead-out : Нет
Заполнение пропущенных сэмплов тишиной : Да
Удаление блоков с тишиной в начале и конце : Нет
При вычислениях CRC использовались нулевые сэмплы : Да
Интерфейс : Встроенный Win32-интерфейс для Win NT/2000

Выходной формат : Внутренние WAV-операции
Формат сэмплов : 44.100 Гц; 16 бит; стерео

TOC извлечённого CD

Трек | Старт | Длительность | Начальный сектор | Конечный сектор
---------------------------------------------------------------------
1 | 0:00.00 | 7:22.00 | 0 | 33149
2 | 7:22.00 | 14:08.00 | 33150 | 96749
3 | 21:30.00 | 4:10.07 | 96750 | 115506
4 | 25:40.07 | 3:20.68 | 115507 | 130574
5 | 29:01.00 | 6:05.00 | 130575 | 157949
6 | 35:06.00 | 8:54.00 | 157950 | 197999
7 | 44:00.00 | 5:14.00 | 198000 | 221549
8 | 49:14.00 | 7:07.00 | 221550 | 253574
9 | 56:21.00 | 5:02.00 | 253575 | 276224
10 | 61:23.00 | 7:20.00 | 276225 | 309224
11 | 68:43.00 | 2:03.00 | 309225 | 318449

Характеристики диапазона извлечения и сообщения об ошибках

Выбранный диапазон

Имя файла C:\Monks of Simonopetra - AGNЙ PARTHENЙ.wav

Пиковый уровень 100.0 %
Качество диапазона 100.0 %
CRC копии ADA37AD4
Копирование... OK

Ошибок не произошло
Download

Войдите для скачивания торрент-файла

Как скачивать  ·   Правила трекера



Последний раз редактировалось: СЕРГУЛЕТ (2010-03-14 17:09), всего редактировалось 2 раз(а)
[Профиль]  [ЛС] 

Academic Crack

Администратор

Стаж: 8 лет 5 месяцев

Сообщений: 2082

Russia

post 01-Дек-2009 04:05 (спустя 4 часа)

[Цитировать] 

Спасибо. Качаю. В ратио 10 раздам.

_________________
pic
pic 100 Мбит/с, pic 100 Мбит/с.
Исправили раздачу? Пишите в личку со ссылкой на раздачу.
[Профиль]  [ЛС] 

Rokky

post 12-Ноя-2010 22:37 (спустя 11 месяцев)

[Цитировать] 

Спасибо вам за этот диск в Lossless. Давно искал его в таком качестве. Скачаю - присоединюсь к раздаче.

P.S: Встаньте кто-нибудь на раздачу пожалуйста.
 

DCH

Стаж: 6 лет 5 месяцев

Сообщений: 6

Russia

post 29-Ноя-2010 20:31 (спустя 16 дней)

[Цитировать] 

Спасибо. Стою на раздаче.
[Профиль]  [ЛС] 

amartolos

post 01-Дек-2010 15:42 (спустя 1 день 19 часов)

[Цитировать] 

Спасибо за хороший диск.
 

Александр Донцов

Стаж: 7 лет 5 месяцев

Сообщений: 454

post 07-Дек-2010 01:34 (спустя 5 дней)

[Цитировать] 

Спаси Господи за ценную раздачу. А Валаамского исполнения нету сих песнопений на русском?
[Профиль]  [ЛС] 

СЕРГУЛЕТ

Стаж: 8 лет 3 месяца

Сообщений: 2639

Откуда: LA ROMANA

Dominicanrep

post 07-Дек-2010 09:44 (спустя 8 часов)

[Цитировать] 

Александр Донцов
http://pravtor.ru/viewtopic.php?t=3358
[Профиль]  [ЛС] 

Александр Донцов

Стаж: 7 лет 5 месяцев

Сообщений: 454

post 07-Дек-2010 12:17 (спустя 2 часа 32 минуты)

[Цитировать] 

СЕРГУЛЕТ писал(а):

Александр Донцов
http://pravtor.ru/viewtopic.php?t=3358
Слава Богу! Спаси Господи, Сергулет Smile Теперь буду понимать, о чем поют греки Wink
[Профиль]  [ЛС] 

Nomikos

Стаж: 6 лет 1 месяц

Сообщений: 5

Russia

post 17-Май-2011 22:34 (спустя 5 месяцев 10 дней)

[Цитировать] 

Eyxarustw!
[Профиль]  [ЛС] 

Алена18

post 14-Сен-2011 16:02 (спустя 3 месяца 27 дней)

[Цитировать] 

помогите, пожалуйста, скачать!!
 

AllaVal27

Стаж: 3 года 6 месяцев

Сообщений: 139

Canada

post 12-Ноя-2013 04:36 (спустя 2 года 1 месяц)

[Цитировать] 

Спасибо, это мой любимый сборник, хоть и не понимаю греческого, а всё равно вдохновлает.
[Профиль]  [ЛС] 

AllaVal27

Стаж: 3 года 6 месяцев

Сообщений: 139

Canada

post 12-Ноя-2013 04:38 (спустя 1 минута)

[Цитировать] 

Жаль, что обложка не открывается. Названий треков не разглядеть.
[Профиль]  [ЛС] 

inspiriter

Стаж: 6 лет

Сообщений: 5

Ukraine

post 10-Май-2014 19:44 (спустя 5 месяцев 28 дней)

[Цитировать] 

Спаси, Господи! Благодарю.
[Профиль]  [ЛС] 

GROTESK

Стаж: 8 лет 1 месяц

Сообщений: 78

Откуда: Краснодон

Ukraine

post 19-Май-2014 23:36 (спустя 9 дней)

[Цитировать] 

Спаси Господи
[Профиль]  [ЛС] 

User

Стаж: 4 года 9 месяцев

Сообщений: 8

Russia

post 15-Апр-2016 23:54 (спустя 1 год 10 месяцев)

[Цитировать] 

Спасибо!
[Профиль]  [ЛС] 
Показать сообщения:    
Ответить на тему

Текущее время: 23-Май 16:47

Часовой пояс: GMT + 4



Вы не можете начинать темы
Вы не можете отвечать на сообщения
Вы не можете редактировать свои сообщения
Вы не можете удалять свои сообщения
Вы не можете голосовать в опросах
Вы не можете прикреплять файлы к сообщениям
Вы не можете скачивать файлы