Loading...
Error

(Колокольные звоны.) "Большой Пасхальный Звон". - 2007, APE (image + .cue), lossless

Ответить на тему
Статистика раздачи
   
 
Автор Сообщение

СЕРГУЛЕТ

Стаж: 8 лет 8 месяцев

Сообщений: 2640

Откуда: LA ROMANA

Dominicanrep

post 21-Ноя-2009 16:34

[Цитировать] 

"Большой Пасхальный Звон".

pic
Страна: Россия. Данилов монастырь.
Жанр: Колокольные звоны.
Год выпуска: 2007
Формат: APE (image + .cue)
Битрейт аудио: lossless
Продолжительность: 01:04:47
Описание: Пасхальные звоны... Издревле на Руси всю I Светлую седмицу всякий желающий мог подняться на колокольню для участия в радостном колокольном празднике. Это были дни рождения новых звонарей. И не только потому, что кто-либо из пришедших обнаруживал интерес или способности к звонарскому мастерству, но и ещё и потому, что опытные звонари, завсегдатаи колокольни в эти дни, могли передать часть своего богатого опыта новичкам. Звоны таких профессионалов были яркими и захватывающими.
И сегодня именно в это время в Москве опытные звонари ходят в гости на колокольни друг к другу, делятся опытом, пробуют свои силы на разных ансамблях. Такие трезвоны и участники звонов никого не оставляют равподушными. Виртуозность исполнения сразу же вдохновляет новичков. Некоторые возвращаются на колокольню уже и после Пасхи, чтобы всерьёз освоить продемонстрированное искусство.
Содержание+Обложки
picpicpic
EAC log
Exact Audio Copy V0.99 prebeta 5 from 4. May 2009

Отчёт EAC об извлечении, выполненном 20. ноября 2009, 18:07

Звонари России / Большой Пасхальный звон на колокольне Данилова монастыря г. Москвы 9 мая 2005 г.

Дисковод: ASUS BC-1205PT Adapter: 1 ID: 0

Режим чтения : Достоверность
Использование точного потока : Да
Отключение кэша аудио : Да
Использование указателей C2 : Нет

Коррекция смещения при чтении : 667
Способность читать области Lead-in и Lead-out : Нет
Заполнение пропущенных сэмплов тишиной : Да
Удаление блоков с тишиной в начале и конце : Нет
При вычислениях CRC использовались нулевые сэмплы : Да
Интерфейс : Встроенный Win32-интерфейс для Win NT/2000

Выходной формат : Внутренние WAV-операции
Формат сэмплов : 44.100 Гц; 16 бит; стерео

TOC извлечённого CD

Трек | Старт | Длительность | Начальный сектор | Конечный сектор
---------------------------------------------------------------------
1 | 0:00.00 | 18:11.68 | 0 | 81892
2 | 18:11.68 | 5:42.48 | 81893 | 107590
3 | 23:54.41 | 4:05.57 | 107591 | 126022
4 | 28:00.23 | 2:51.03 | 126023 | 138850
5 | 30:51.26 | 4:36.59 | 138851 | 159609
6 | 35:28.10 | 2:14.51 | 159610 | 169710
7 | 37:42.61 | 3:14.51 | 169711 | 184311
8 | 40:57.37 | 4:45.67 | 184312 | 205753
9 | 45:43.29 | 2:45.67 | 205754 | 218195
10 | 48:29.21 | 2:36.45 | 218196 | 229940
11 | 51:05.66 | 3:22.64 | 229941 | 245154
12 | 54:28.55 | 5:02.11 | 245155 | 267815
13 | 59:30.66 | 1:56.19 | 267816 | 276534
14 | 61:27.10 | 3:20.47 | 276535 | 291581

Характеристики диапазона извлечения и сообщения об ошибках

Выбранный диапазон

Имя файла C:\Звонари России - Большой Пасхальный звон на колокольне Данилова монастыря г. Москвы 9 мая 2005 г..wav

Пиковый уровень 97.3 %
Качество диапазона 100.0 %
CRC копии 4497D54F
Копирование... OK

Ошибок не произошло
Download

Войдите на сайт, чтобы увидеть полную информацию.

Как скачивать  ·   Правила трекера

[Профиль]  [ЛС] 

+Сергей+

Стаж: 6 лет 10 месяцев

Сообщений: 225

Откуда: Москва

Russia

post 04-Дек-2010 19:27 (спустя 1 год)

[Цитировать] 

Большое спасибо!
[Профиль]  [ЛС] 

Владимир Лухов

Стаж: 7 лет 1 месяц

Сообщений: 109

Откуда: Саратов

Russia

post 13-Сен-2015 22:26 (спустя 4 года 9 месяцев)

[Цитировать] 

Благодарю!

_________________
С уважением. Владимир.
[Профиль]  [ЛС] 
Показать сообщения:    
Ответить на тему

Текущее время: 22-Окт 19:43

Часовой пояс: GMT + 4



Вы не можете начинать темы
Вы не можете отвечать на сообщения
Вы не можете редактировать свои сообщения
Вы не можете удалять свои сообщения
Вы не можете голосовать в опросах
Вы не можете прикреплять файлы к сообщениям
Вы не можете скачивать файлы