Loading...
Error

(Колокольные звоны.) "Колокола Руси". Алексей Уткин. - 2002, APE (image + .cue), lossless

Ответить на тему
Статистика раздачи
   
 
Автор Сообщение

СЕРГУЛЕТ

Стаж: 8 лет 8 месяцев

Сообщений: 2640

Откуда: LA ROMANA

Dominicanrep

post 23-Окт-2009 16:19

[Цитировать] 

"Колокола Руси". Алексей Уткин.

pic
Страна: Россия. ООО"Маркон".
Жанр: Колокольные звоны.
Год выпуска: 2002
Формат: APE (image + .cue)
Битрейт аудио: lossless
Продолжительность: 01:11:27
Обложки+Содержание
picpic
EAC log
Exact Audio Copy V0.99 prebeta 5 from 4. May 2009

Отчёт EAC об извлечении, выполненном 23. октября 2009, 16:08

Алексей Уткин / Колокола Руси

Дисковод: ASUS BC-1205PT Adapter: 1 ID: 0

Режим чтения : Достоверность
Использование точного потока : Да
Отключение кэша аудио : Да
Использование указателей C2 : Нет

Коррекция смещения при чтении : 667
Способность читать области Lead-in и Lead-out : Нет
Заполнение пропущенных сэмплов тишиной : Да
Удаление блоков с тишиной в начале и конце : Нет
При вычислениях CRC использовались нулевые сэмплы : Да
Интерфейс : Встроенный Win32-интерфейс для Win NT/2000

Выходной формат : Внутренние WAV-операции
Формат сэмплов : 44.100 Гц; 16 бит; стерео

TOC извлечённого CD

Трек | Старт | Длительность | Начальный сектор | Конечный сектор
---------------------------------------------------------------------
1 | 0:00.00 | 6:39.39 | 0 | 29963
2 | 6:39.39 | 5:39.28 | 29964 | 55416
3 | 12:18.67 | 8:19.36 | 55417 | 92877
4 | 20:38.28 | 4:12.03 | 92878 | 111780
5 | 24:50.31 | 4:18.28 | 111781 | 131158
6 | 29:08.59 | 6:49.08 | 131159 | 161841
7 | 35:57.67 | 6:05.49 | 161842 | 189265
8 | 42:03.41 | 8:39.05 | 189266 | 228195
9 | 50:42.46 | 6:25.59 | 228196 | 257129
10 | 57:08.30 | 6:15.30 | 257130 | 285284
11 | 63:23.60 | 8:01.53 | 285285 | 321412

Характеристики диапазона извлечения и сообщения об ошибках

Выбранный диапазон

Имя файла C:\Алексей Уткин - Колокола Руси.wav

Пиковый уровень 100.0 %
Качество диапазона 100.0 %
CRC копии 5F738C75
Копирование... OK

Ошибок не произошло
Конец отчёта
Download

Войдите на сайт, чтобы увидеть полную информацию.

Как скачивать  ·   Правила трекера



Последний раз редактировалось: СЕРГУЛЕТ (2010-11-13 03:23), всего редактировалось 1 раз
[Профиль]  [ЛС] 

Владимир Лухов

Стаж: 7 лет 1 месяц

Сообщений: 109

Откуда: Саратов

Russia

post 18-Ноя-2010 02:42 (спустя 1 год)

[Цитировать] 

Благодарю!

_________________
С уважением. Владимир.
[Профиль]  [ЛС] 

+Сергей+

Стаж: 6 лет 10 месяцев

Сообщений: 225

Откуда: Москва

Russia

post 04-Дек-2010 20:04 (спустя 16 дней)

[Цитировать] 

Спасибо.
[Профиль]  [ЛС] 

ко

post 12-Янв-2011 01:07 (спустя 1 месяц 7 дней)

[Цитировать] 

спасибо!
 

Deonizy

post 22-Янв-2011 07:42 (спустя 10 дней)

[Цитировать] 

спасибо
 
Показать сообщения:    
Ответить на тему

Текущее время: 21-Окт 19:55

Часовой пояс: GMT + 4



Вы не можете начинать темы
Вы не можете отвечать на сообщения
Вы не можете редактировать свои сообщения
Вы не можете удалять свои сообщения
Вы не можете голосовать в опросах
Вы не можете прикреплять файлы к сообщениям
Вы не можете скачивать файлы