Loading...
Error

(Liturgy) Armenian Spiritual Songs - Arevagal in Geghard (Acolyte Arthur Petrosian, Lusavorich Chor) - 2002, FLAC (image + .cue), lossless

Ответить на тему
Статистика раздачи
   
 
Автор Сообщение

kasatkal

post 30-Мар-2010 10:14

[Цитировать] 

Armenian Spiritual Songs - Arevagal in Geghard (Acolyte Arthur Petrosian, Lusavorich Chor)

pic
Страна: © + ® Narek.com Records. Armenia
Жанр: Liturgy
Год выпуска: 2002
Формат: FLAC (image + .cue)
Битрейт аудио: lossless
Продолжительность: 51:48

Conductor: Acolyte Arthur Petrosian, division IV
(14) Ms. Shake Ashchian
Performer: Lusavorich Chor of the Vazgenian Seminary of Sevan
(14) Childer`s Choir of the Holy See of Echmiadzin

Трэклист:
1. Hajr Mer (Lord's Prayer) (1:58)
2. Etc Miatsinn i Hore (Only Begotten of thr Father) (1:56)
3. Govea Erusaghem (Praise the Lord, Oh Jeruslaem) (1:45)
4. Metsacusce (My soul magnified the Lord) (2:05)
5. Aisor Cntsan Erknajinkh (Heavenly Host Rejoice Today) (2:05)
6. Hrashaphar (Wondrously Glorious) (2:08)
7. Pharki i Bardzuns (Glory in the Highest) (3:59)
8. Hambarnalov (Ascended into Heaven) (1:42)
9. Surb Astvats (Holy God) (1:17)
10. Khristos i Metc mer (Christ in Our Midst Hath Been Revealed) (1:20)
11. Vorkh Zardarecin (Those who Interpreted) (2:04)
12. Arevagal (Songs of Sunrise) (24:41)
1.Harevelic (2:33)
2.Hordorak (1:29)
3.Tchnavorkh (5:25)
4.Hordorak (4:00)
5.Lous (5:38)
6.Aneghanelid (1:46)
7.Tchanaparh (2:13)
8.Hordorak (1:26)
13. Hajrapetakan Maghtankh (Pontificial Hymns) (2:21)
14. Najeac Sirov (Look With Love) (2:27)

Дополнительная информация:
log EAC
Exact Audio Copy V0.99 prebeta 4 from 23. January 2008

EAC extraction logfile from 29. March 2010, 19:26

Lusavorich Chor / Medieval Spiritual Songs - Arevagal in Geghard

Used drive : ATAPI DVD A DH20A4P Adapter: 2 ID: 1

Read mode : Secure
Utilize accurate stream : Yes
Defeat audio cache : Yes
Make use of C2 pointers : No

Read offset correction : 6
Overread into Lead-In and Lead-Out : No
Fill up missing offset samples with silence : Yes
Delete leading and trailing silent blocks : No
Null samples used in CRC calculations : Yes
Used interface : Installed external ASPI interface

Used output format : User Defined Encoder
Selected bitrate : 768 kBit/s
Quality : High
Add ID3 tag : No
Command line compressor : C:\Program Files\Exact Audio Copy\Flac\flac.exe
Additional command line options : -6 -V -T "ARTIST=%a" -T "TITLE=%t" -T "ALBUM=%g" -T "DATE=%y" -T "TRACKNUMBER=%n" -T

"GENRE=%m" -T "COMMENT=%e" %s -o %d

TOC of the extracted CD

Track | Start | Length | Start sector | End sector
---------------------------------------------------------
1 | 0:00.00 | 1:58.71 | 0 | 8920
2 | 1:58.71 | 1:56.45 | 8921 | 17665
3 | 3:55.41 | 1:45.51 | 17666 | 25591
4 | 5:41.17 | 2:05.57 | 25592 | 35023
5 | 7:46.74 | 2:05.64 | 35024 | 44462
6 | 9:52.63 | 2:08.10 | 44463 | 54072
7 | 12:00.73 | 3:59.62 | 54073 | 72059
8 | 16:00.60 | 1:42.13 | 72060 | 79722
9 | 17:42.73 | 1:17.69 | 79723 | 85566
10 | 19:00.67 | 1:20.47 | 85567 | 91613
11 | 20:21.39 | 2:04.59 | 91614 | 100972
12 | 22:26.23 | 24:41.28 | 100973 | 212075
13 | 47:07.51 | 2:21.41 | 212076 | 222691
14 | 49:29.17 | 2:27.31 | 222692 | 233747

Range status and errors

Selected range

Filename C:\Program Files\Exact Audio Copy\Flac\Lusavorich Chor - Arevagal in Geghard.wav

Peak level 61.4 %
Range quality 100.0 %
Test CRC 3858856E
Copy CRC 3858856E
Copy OK

No errors occurred

End of status report
Download

Войдите на сайт, чтобы увидеть полную информацию.

Как скачивать  ·   Правила трекера

 

devss

Стаж: 7 лет 11 месяцев

Сообщений: 17

Откуда: РФ

Russia

post 29-Авг-2010 20:24 (спустя 4 месяца 30 дней)

[Цитировать] 

прошу раздать
[Профиль]  [ЛС] 

kasatkal

post 29-Авг-2010 21:19 (спустя 54 минуты)

[Цитировать] 

я всегда на раздаче!
 

devss

Стаж: 7 лет 11 месяцев

Сообщений: 17

Откуда: РФ

Russia

post 30-Авг-2010 22:10 (спустя 1 день)

[Цитировать] 

все ли в порядке у вас с торрентом? я вас не вижу в сидерах.
[Профиль]  [ЛС] 

levon

Стаж: 1 год 7 месяцев

Сообщений: 1

Armenia

post 25-Фев-2016 01:08 (спустя 5 лет 5 месяцев)

[Цитировать] 

СПАСИБО!!!
[Профиль]  [ЛС] 
Показать сообщения:    
Ответить на тему

Текущее время: 22-Окт 19:42

Часовой пояс: GMT + 4



Вы не можете начинать темы
Вы не можете отвечать на сообщения
Вы не можете редактировать свои сообщения
Вы не можете удалять свои сообщения
Вы не можете голосовать в опросах
Вы не можете прикреплять файлы к сообщениям
Вы не можете скачивать файлы