Loading...
Error

Русские колокольные звоны (2001) lossless FLAC (image + .cue) + mp3 320 Kbps

Ответить на тему
Статистика раздачи
   
 
Автор Сообщение

Academic Crack

Администратор

Стаж: 8 лет 10 месяцев

Сообщений: 2080

Russia

post 29-Янв-2009 18:25

[Цитировать] 

Русские колокольные звоны (2001) lossless FLAC (image + .cue) + mp3 320 Kbps
pic
Год выпуска: 2001
Жанр: Колокольные звоны
Производитель диска: ООО "Культурный центр "Русский Дом - Ярославль"
Аудио кодек: FLAC/ mp3
Тип рипа: image+.cue
Битрейт аудио: lossless + mp3 320 Kbps
Исполнитель: Разные исполнители
Продолжительность: 72:29

Треклист:
01. Красный звон 05:04
02. Малый трезвон 01:52
03. Монастырский звон 03:37
04. Покровский праздничный звон 01:42
05. Пасхальный звон 01:32
06. Соборгый звон 02:09
07. Погребальный звон 02:09
08. Встречный звон 01:55
09. Будничный звон 01:32
10. Юрьевский звон 02:15
11. Софийский звон 02:39
12. Соборный звон 03:13
13. Праздничный звон 01:49
14. Встречный звон 03:30
15. Софийский звон 03:01
16. Свадебный звон 03:04
17. Торжественный звон 03:51
18. Звон из оперы Мусоргского Борис Годунов 02:31
19. Погребальный звон 02:01
20. Вариации на темы ростовских звонов 01:52
21. Колокольный стих Слово о полку Игоревом 03:50
22. Псково-печерский Московский звон 01:52
23. Звон на приезд архиерея московского Свято-Данилова монастыря 01:43
24. Звон Псково-Печерского Успенского монастыря 02:04
25. Звон Московского Новодевичьего монастыря 04:09
26. Русская народная песня Вечерный звон 02:20
27. Восход солнца 05:00

Внимание!
Кто хочет скачать только лишь mp3, то выбираем соответствующую папку в торренте при добавлении закачки. Кто хочет скачать только lossless - то же самое. контент lossless и lossy идентичны. Кто хочет скачать все - качайте все. Сканы обложек и диска в разрешении 300 dpi, скрины Tau Analyzer (главное окно + спектрограммы треков), а также log-файл EAC приложены к раздаче.

Прослушать сэмпл (по ссылке дождитесь загрузки панельки flash-проигрывателя и кликните на кнопку воспроизведения)

О том, как воспроизводить lossless-форматы на компьютере, читайте здесь.
Лог EAC
Exact Audio Copy V0.99 prebeta 4 from 23. January 2008

Отчёт EAC об извлечении, выполненном 27. января 2009, 20:28

Various / Русские колокольные звоны

Дисковод: ASUS DRW-1814BL Adapter: 2 ID: 1

Режим чтения : Достоверность
Использование точного потока : Да
Отключение кэша аудио : Да
Использование указателей C2 : Нет

Коррекция смещения при чтении : 6
Способность читать области Lead-in и Lead-out : Нет
Заполнение пропущенных сэмплов тишиной : Да
Удаление блоков с тишиной в начале и конце : Нет
При вычислениях CRC использовались нулевые сэмплы : Да
Интерфейс : Установленный внешний ASPI-интерфейс

Выходной формат : Внутренние WAV-операции
Формат сэмплов : 44.100 Гц; 16 бит; стерео

TOC извлечённого CD

Трек | Старт | Длительность | Начальный сектор | Конечный сектор
---------------------------------------------------------------------
1 | 0:00.00 | 5:04.28 | 0 | 22827
2 | 5:04.28 | 1:52.13 | 22828 | 31240
3 | 6:56.41 | 3:37.33 | 31241 | 47548
4 | 10:33.74 | 1:42.65 | 47549 | 55263
5 | 12:16.64 | 1:32.60 | 55264 | 62223
6 | 13:49.49 | 2:09.30 | 62224 | 71928
7 | 15:59.04 | 2:09.56 | 71929 | 81659
8 | 18:08.60 | 1:55.07 | 81660 | 90291
9 | 20:03.67 | 1:32.59 | 90292 | 97250
10 | 21:36.51 | 2:15.36 | 97251 | 107411
11 | 23:52.12 | 2:39.56 | 107412 | 119392
12 | 26:31.68 | 3:13.52 | 119393 | 133919
13 | 29:45.45 | 1:49.48 | 133920 | 142142
14 | 31:35.18 | 3:30.30 | 142143 | 157922
15 | 35:05.48 | 3:01.26 | 157923 | 171523
16 | 38:06.74 | 3:04.08 | 171524 | 185331
17 | 41:11.07 | 3:51.68 | 185332 | 202724
18 | 45:03.00 | 2:31.35 | 202725 | 214084
19 | 47:34.35 | 2:01.02 | 214085 | 223161
20 | 49:35.37 | 1:52.55 | 223162 | 231616
21 | 51:28.17 | 3:50.64 | 231617 | 248930
22 | 55:19.06 | 1:52.02 | 248931 | 257332
23 | 57:11.08 | 1:43.11 | 257333 | 265068
24 | 58:54.19 | 2:04.74 | 265069 | 274442
25 | 60:59.18 | 4:09.53 | 274443 | 293170
26 | 65:08.71 | 2:20.43 | 293171 | 303713
27 | 67:29.39 | 5:00.30 | 303714 | 326243

Характеристики диапазона извлечения и сообщения об ошибках

Выбранный диапазон

Имя файла J:\Religion\Various - Русские колокольные звоны\lossless\CDImage.wav

Пиковый уровень 100.0 %
Качество диапазона 100.0 %
CRC теста 52447C8A
CRC копии 52447C8A
Копирование... OK

Ошибок не произошло

AccurateRip: сводка

Трек 1 нет в базе данных
Трек 2 нет в базе данных
Трек 3 нет в базе данных
Трек 4 нет в базе данных
Трек 5 нет в базе данных
Трек 6 нет в базе данных
Трек 7 нет в базе данных
Трек 8 нет в базе данных
Трек 9 нет в базе данных
Трек 10 нет в базе данных
Трек 11 нет в базе данных
Трек 12 нет в базе данных
Трек 13 нет в базе данных
Трек 14 нет в базе данных
Трек 15 нет в базе данных
Трек 16 нет в базе данных
Трек 17 нет в базе данных
Трек 18 нет в базе данных
Трек 19 нет в базе данных
Трек 20 нет в базе данных
Трек 21 нет в базе данных
Трек 22 нет в базе данных
Трек 23 нет в базе данных
Трек 24 нет в базе данных
Трек 25 нет в базе данных
Трек 26 нет в базе данных
Трек 27 нет в базе данных

Ни одного трека нет в базе AccurateRip

Конец отчёта
Скрин Tau Analyzer
Надо сказать, что программа Tau Analyzer не выдержала проверку колокольными звонами, и некоторые треки вообще не смогла идентифицировать однозначно.
pic
Если после этого скрина вы засомневались в качестве исходного диска, скачайте из раздачи папку tauscreens. Там лежат скрины спектрограмм всех треков, по которым сразу увидите качество. Разумеется, если это для вас это имеет значение.
Сканы обложек и диска (скан буклета в раздаче):
picpic
Download

Войдите на сайт, чтобы увидеть полную информацию.

Как скачивать  ·   Правила трекера


_________________
pic
pic 100 Мбит/с, pic 100 Мбит/с.
Исправили раздачу? Пишите в личку со ссылкой на раздачу.


Последний раз редактировалось: Academic Crack (2011-03-08 00:10), всего редактировалось 3 раз(а)
[Профиль]  [ЛС] 

Ballbreacker

Стаж: 8 лет 8 месяцев

Сообщений: 4

Russia

post 02-Фев-2009 16:39 (спустя 3 дня)

[Цитировать] 

спасибо
[Профиль]  [ЛС] 

nivasb

post 07-Фев-2009 15:00 (спустя 4 дня)

[Цитировать] 

спасибо
 

Владимир Лухов

Стаж: 7 лет 1 месяц

Сообщений: 109

Откуда: Саратов

Russia

post 18-Ноя-2010 08:22 (спустя 1 год 9 месяцев)

[Цитировать] 

Большая благодарность за подборку колокольных звонов.
Слушаю - душа радуется!

_________________
С уважением. Владимир.
[Профиль]  [ЛС] 

ded47

Стаж: 6 лет 9 месяцев

Сообщений: 75

Russia

post 15-Мар-2012 22:51 (спустя 1 год 3 месяца)

[Цитировать] 

Спаси Господи!
[Профиль]  [ЛС] 

vika010288

Стаж: 8 лет 3 месяца

Сообщений: 458

Georgia

post 16-Мар-2012 17:59 (спустя 19 часов)

[Цитировать] 

Спаси Господи!
[Профиль]  [ЛС] 
Показать сообщения:    
Ответить на тему

Текущее время: 17-Окт 21:06

Часовой пояс: GMT + 4



Вы не можете начинать темы
Вы не можете отвечать на сообщения
Вы не можете редактировать свои сообщения
Вы не можете удалять свои сообщения
Вы не можете голосовать в опросах
Вы не можете прикреплять файлы к сообщениям
Вы не можете скачивать файлы