Loading...
Error

(Церковная музыка и церковные хоры (lossless).) "Псалтирь". Читает игумен Амвросий (Ермаков). (5 CD). - 2004, APE (image + .cue), lossless

Ответить на тему
Статистика раздачи
Скачали: [ 9 ]
   
 
Автор Сообщение

СЕРГУЛЕТ

Стаж: 7 лет 9 месяцев

Сообщений: 2639

Откуда: LA ROMANA

Dominicanrep

post 10-Мар-2010 23:32

[Цитировать] 

"Псалтирь". Читает игумен Амвросий (Ермаков). (5 CD).

pic
Страна: Россия. Сретенский монастырь.
Жанр: Церковная музыка и церковные хоры (lossless).
Год выпуска: 2004
Формат: APE (image + .cue)
Битрейт аудио: lossless
Продолжительность: 06:11:33
Трэклист:
Диск 1. Кафизмы 1-4. Псалмы 1-31.
Диск 2. Кафизмы 5-8. Псалмы 32-63.
Диск 3. Кафизмы 9-12. Псалмы 64-90.
Диск 4. Кафизмы 13-16. Псалмы 91-117.
Диск 5. Кафизмы 17-20. Псалмы 118-150.
Содержание+Обложки
picpic
EAC log
Exact Audio Copy V0.99 prebeta 5 from 4. May 2009

Отчёт EAC об извлечении, выполненном 10. марта 2010, 8:24

Unknown Artist / Псалтирь_1

Дисковод: ASUS DRW-2014L1T Adapter: 0 ID: 1

Режим чтения : Достоверность
Использование точного потока : Да
Отключение кэша аудио : Да
Использование указателей C2 : Нет

Коррекция смещения при чтении : 6
Способность читать области Lead-in и Lead-out : Нет
Заполнение пропущенных сэмплов тишиной : Да
Удаление блоков с тишиной в начале и конце : Нет
При вычислениях CRC использовались нулевые сэмплы : Да
Интерфейс : Встроенный Win32-интерфейс для Win NT/2000

Выходной формат : Внутренние WAV-операции
Формат сэмплов : 44.100 Гц; 16 бит; стерео

TOC извлечённого CD

Трек | Старт | Длительность | Начальный сектор | Конечный сектор
---------------------------------------------------------------------
1 | 0:00.00 | 4:12.02 | 0 | 18901
2 | 4:12.02 | 14:52.48 | 18902 | 85849
3 | 19:04.50 | 15:56.35 | 85850 | 157584
4 | 35:01.10 | 20:27.59 | 157585 | 249668
5 | 55:28.69 | 19:50.15 | 249669 | 338933

Характеристики диапазона извлечения и сообщения об ошибках

Выбранный диапазон

Имя файла C:\Unknown Artist - Псалтирь_1.wav

Пиковый уровень 98.7 %
Качество диапазона 100.0 %
CRC копии 4BD57330
Копирование... OK

Ошибок не произошло

Конец отчёта
cd2/
Exact Audio Copy V0.99 prebeta 5 from 4. May 2009

Отчёт EAC об извлечении, выполненном 10. марта 2010, 8:36

Unknown Artist / Псалтирь-2

Дисковод: ASUS DRW-2014L1T Adapter: 0 ID: 1

Режим чтения : Достоверность
Использование точного потока : Да
Отключение кэша аудио : Да
Использование указателей C2 : Нет

Коррекция смещения при чтении : 6
Способность читать области Lead-in и Lead-out : Нет
Заполнение пропущенных сэмплов тишиной : Да
Удаление блоков с тишиной в начале и конце : Нет
При вычислениях CRC использовались нулевые сэмплы : Да
Интерфейс : Встроенный Win32-интерфейс для Win NT/2000

Выходной формат : Внутренние WAV-операции
Формат сэмплов : 44.100 Гц; 16 бит; стерео

TOC извлечённого CD

Трек | Старт | Длительность | Начальный сектор | Конечный сектор
---------------------------------------------------------------------
1 | 0:00.00 | 17:38.02 | 0 | 79351
2 | 17:38.02 | 22:24.02 | 79352 | 180153
3 | 40:02.04 | 20:24.02 | 180154 | 271955
4 | 60:26.06 | 17:14.02 | 271956 | 349507

Характеристики диапазона извлечения и сообщения об ошибках

Выбранный диапазон

Имя файла C:\Unknown Artist - Псалтирь-2.wav

Пиковый уровень 100.0 %
Качество диапазона 99.9 %
CRC копии FF3897C7
Копирование... OK

Ошибок не произошло

Конец отчёта
cd3.
Exact Audio Copy V0.99 prebeta 5 from 4. May 2009

Отчёт EAC об извлечении, выполненном 10. марта 2010, 8:48

Unknown Artist / Псалтирь-3

Дисковод: ASUS DRW-2014L1T Adapter: 0 ID: 1

Режим чтения : Достоверность
Использование точного потока : Да
Отключение кэша аудио : Да
Использование указателей C2 : Нет

Коррекция смещения при чтении : 6
Способность читать области Lead-in и Lead-out : Нет
Заполнение пропущенных сэмплов тишиной : Да
Удаление блоков с тишиной в начале и конце : Нет
При вычислениях CRC использовались нулевые сэмплы : Да
Интерфейс : Встроенный Win32-интерфейс для Win NT/2000

Выходной формат : Внутренние WAV-операции
Формат сэмплов : 44.100 Гц; 16 бит; стерео

TOC извлечённого CD

Трек | Старт | Длительность | Начальный сектор | Конечный сектор
---------------------------------------------------------------------
1 | 0:00.00 | 17:58.50 | 0 | 80899
2 | 17:58.50 | 19:59.04 | 80900 | 170828
3 | 37:57.54 | 20:51.48 | 170829 | 264701
4 | 58:49.27 | 16:53.01 | 264702 | 340677

Характеристики диапазона извлечения и сообщения об ошибках

Выбранный диапазон

Имя файла C:\Unknown Artist - Псалтирь-3.wav

Пиковый уровень 99.9 %
Качество диапазона 100.0 %
CRC копии C298DAD7
Копирование... OK

Ошибок не произошло

Конец отчёта
cd4.
Exact Audio Copy V0.99 prebeta 5 from 4. May 2009

Отчёт EAC об извлечении, выполненном 10. марта 2010, 8:58

Unknown Artist / Псалтирь-4

Дисковод: ASUS DRW-2014L1T Adapter: 0 ID: 1

Режим чтения : Достоверность
Использование точного потока : Да
Отключение кэша аудио : Да
Использование указателей C2 : Нет

Коррекция смещения при чтении : 6
Способность читать области Lead-in и Lead-out : Нет
Заполнение пропущенных сэмплов тишиной : Да
Удаление блоков с тишиной в начале и конце : Нет
При вычислениях CRC использовались нулевые сэмплы : Да
Интерфейс : Встроенный Win32-интерфейс для Win NT/2000

Выходной формат : Внутренние WAV-операции
Формат сэмплов : 44.100 Гц; 16 бит; стерео

TOC извлечённого CD

Трек | Старт | Длительность | Начальный сектор | Конечный сектор
---------------------------------------------------------------------
1 | 0:00.00 | 16:37.11 | 0 | 74785
2 | 16:37.11 | 18:37.02 | 74786 | 158562
3 | 35:14.13 | 18:19.03 | 158563 | 240990
4 | 53:33.16 | 15:37.03 | 240991 | 311268

Характеристики диапазона извлечения и сообщения об ошибках

Выбранный диапазон

Имя файла C:\Unknown Artist - Псалтирь-4.wav

Пиковый уровень 100.0 %
Качество диапазона 100.0 %
CRC копии D318FF88
Копирование... OK

Ошибок не произошло

Конец отчёта
cd5.
Exact Audio Copy V0.99 prebeta 5 from 4. May 2009

Отчёт EAC об извлечении, выполненном 10. марта 2010, 9:16

Unknown Artist / Псалтирь-5

Дисковод: ASUS DRW-2014L1T Adapter: 0 ID: 1

Режим чтения : Достоверность
Использование точного потока : Да
Отключение кэша аудио : Да
Использование указателей C2 : Нет

Коррекция смещения при чтении : 6
Способность читать области Lead-in и Lead-out : Нет
Заполнение пропущенных сэмплов тишиной : Да
Удаление блоков с тишиной в начале и конце : Нет
При вычислениях CRC использовались нулевые сэмплы : Да
Интерфейс : Встроенный Win32-интерфейс для Win NT/2000

Выходной формат : Внутренние WAV-операции
Формат сэмплов : 44.100 Гц; 16 бит; стерео

TOC извлечённого CD

Трек | Старт | Длительность | Начальный сектор | Конечный сектор
---------------------------------------------------------------------
1 | 0:00.00 | 21:09.38 | 0 | 95212
2 | 21:09.38 | 13:53.20 | 95213 | 157707
3 | 35:02.58 | 17:31.00 | 157708 | 236532
4 | 52:33.58 | 15:29.62 | 236533 | 306269
5 | 68:03.45 | 6:18.70 | 306270 | 334689

Характеристики диапазона извлечения и сообщения об ошибках

Выбранный диапазон

Имя файла C:\Unknown Artist - Псалтирь-5.wav

Подозрительная позиция 0:43:21

Пиковый уровень 99.9 %
Качество диапазона 99.9 %
CRC копии 47331A34
Копирование завершено

Были ошибки

Конец отчёта
Download

Войдите для скачивания торрент-файла

Как скачивать  ·   Правила трекера

[Профиль]  [ЛС] 

КукА

Стаж: 7 лет 7 месяцев

Сообщений: 526

Откуда: Одесса

Ukraine

post 22-Окт-2010 21:16 (спустя 7 месяцев)

[Цитировать] 

Дай Бог здравия,Сергулет!
[Профиль]  [ЛС] 

Странник1

Стаж: 7 лет

Сообщений: 2308

Russia

post 27-Окт-2010 13:14 (спустя 4 дня)

[Цитировать] 

Спасибо
[Профиль]  [ЛС] 

vironika

Стаж: 5 лет 6 месяцев

Сообщений: 15

post 29-Дек-2011 15:23 (спустя 1 год 2 месяца)

[Цитировать] 

... спасибо
[Профиль]  [ЛС] 

александрр1977

Стаж: 5 лет

Сообщений: 76

Russia

post 08-Ноя-2014 14:53 (спустя 2 года 10 месяцев)

[Цитировать] 

Благодарю!
[Профиль]  [ЛС] 

страннник

Стаж: 6 лет 10 месяцев

Сообщений: 18

Russia

post 04-Янв-2015 01:41 (спустя 1 месяц 25 дней)

[Цитировать] 

уважаемый выложи если можешь Молебный канон и песнопения службы Св. Великомученику Артемию".
[Профиль]  [ЛС] 

tutopt-ru

Стаж: 2 года 6 месяцев

Сообщений: 12

Belarus

post 26-Янв-2015 14:46 (спустя 22 дня)

[Цитировать] 

СпасиБог!
[Профиль]  [ЛС] 

stepan-frunze

Стаж: 7 лет 9 месяцев

Сообщений: 2565

Russia

post 23-Фев-2015 01:55 (спустя 27 дней)

[Цитировать] 

спасибо
[Профиль]  [ЛС] 

rsn

Стаж: 4 года 9 месяцев

Сообщений: 26

Ussr

post 18-Мар-2015 12:01 (спустя 23 дня)

[Цитировать] 

Спасибо.
[Профиль]  [ЛС] 
Показать сообщения:    
Ответить на тему

Текущее время: 08-Дек 00:14

Часовой пояс: GMT + 4



Вы не можете начинать темы
Вы не можете отвечать на сообщения
Вы не можете редактировать свои сообщения
Вы не можете удалять свои сообщения
Вы не можете голосовать в опросах
Вы не можете прикреплять файлы к сообщениям
Вы не можете скачивать файлы