Loading...
Error

(Церковная музыка и церковные хоры) Ансамбль древне-церковного пения "СРЕТЕНИЕ" - 2001, APE (tracks+ .cue), lossless

Ответить на тему
Статистика раздачи
   
 
Автор Сообщение

Manul

Стаж: 9 лет 8 месяцев

Сообщений: 155

Ussr

post 18-Авг-2009 09:31

[Цитировать] 

Ансамбль древне-церковного пения "СРЕТЕНИЕ"
Под управлением Игоря Сахно



pic

Ансамбль древне-церковного пения "Сретение" возник в 1990 г. в Харькове и первоначально состоял из троих выпускников Харьковского института искусств, которых объединяла любовь к древнему богослужебному пению, не столько из-за оригинальности и экзотики, сколько по причинам более глубокого соответствия этого пения духу молящегося человека.
Коллектив ансамбля, состав которого колеблется от трех до семи певцов, принимает участие в богослужениях, выступает на фестивалях, ведет концертную деятельность. В 1993 г. ансамбль стал лауреатом Московского международного фестиваля им. архидьякона Константина Розова, в 1999, 2000 гг. обладателем гран-при и в 2001 г. лауреатом 1-го места на ежегодном Всеукраинском фестивале церковных хоров "Глас Печерский" в г. Киеве.



Песнопения Божественной Литургии Древнерусской Церкви


pic
Жанр: Духовные песнопения
Год выпуска диска: 2001
Производитель диска: Украина

Аудио кодек: APE
Тип рипа: track+.cue
Битрейт аудио: lossless
Продолжительность: 1:09:10.37

Трэклист:
01. Великая ектения
02. Псалом 102, гласы 2 и 5
03. Малая ектения
04. Слава: Псалом 145, подобен 4 гласа
05. И ныне: Единородный Сыне
06. Малая ектения
07. Во Царствии Твоем: Блаженны Сретения, глас 3
08. Приидите, поклонимся
09. Тропарь Сретения, глас 1
10. Слава, и ныне: Кондак Сретения, глас 4
11. Трисвятое
12. Прокимен, глас 3, песнь Богородицы
13. Апостол
14. Аллилуиа
15. Евангелие
16. Сугубая ектения
17. Херувимская песнь
18. Отца и Сына и Святаго Духа
19. Милость мира
20. Задостойник Сретения, глас 3; И всех, и вся
21. Просительная ектения
22. Отче наш
23. Един Свят
24. Причастен Богородицы
25. Благословен Грядый; Видехом Свет Истинный; Да исполнятся уста наша
26. Прости приимше; Буди имя Господне; Отпуст
log
Exact Audio Copy V0.99 prebeta 4 from 23. January 2008

EAC extraction logfile from 18. June 2009, 14:25

Ансамбль "Сретение" под упр. И. Сахно / Песнопения Божественной Литургии Древнерусской Церкви

Used drive : PLEXTOR DVDR PX-712A Adapter: 5 ID: 0

Read mode : Secure
Utilize accurate stream : Yes
Defeat audio cache : Yes
Make use of C2 pointers : No

Read offset correction : 30
Overread into Lead-In and Lead-Out : No
Fill up missing offset samples with silence : Yes
Delete leading and trailing silent blocks : No
Null samples used in CRC calculations : Yes
Used interface : Native Win32 interface for Win NT & 2000
Gap handling : Appended to previous track

Used output format : Monkey's Audio Lossless Encoder v3.99 DLL
Sample format : Normal Lossless Compression

TOC of the extracted CD

Track | Start | Length | Start sector | End sector
---------------------------------------------------------
1 | 0:00.00 | 4:25.16 | 0 | 19890
2 | 4:25.16 | 3:28.67 | 19891 | 35557
3 | 7:54.08 | 1:08.69 | 35558 | 40726
4 | 9:03.02 | 1:28.13 | 40727 | 47339
5 | 10:31.15 | 1:09.66 | 47340 | 52580
6 | 11:41.06 | 1:09.68 | 52581 | 57823
7 | 12:50.74 | 5:38.04 | 57824 | 83177
8 | 18:29.03 | 0:42.29 | 83178 | 86356
9 | 19:11.32 | 1:32.38 | 86357 | 93294
10 | 20:43.70 | 1:43.28 | 93295 | 101047
11 | 22:27.23 | 2:23.39 | 101048 | 111811
12 | 24:50.62 | 1:16.22 | 111812 | 117533
13 | 26:07.09 | 2:46.43 | 117534 | 130026
14 | 28:53.52 | 1:09.19 | 130027 | 135220
15 | 30:02.71 | 5:18.36 | 135221 | 159106
16 | 35:21.32 | 3:23.01 | 159107 | 174332
17 | 38:44.33 | 5:46.23 | 174333 | 200305
18 | 44:30.56 | 0:59.03 | 200306 | 204733
19 | 45:29.59 | 6:21.72 | 204734 | 233380
20 | 51:51.56 | 3:11.24 | 233381 | 247729
21 | 55:03.05 | 2:31.07 | 247730 | 259061
22 | 57:34.12 | 3:28.08 | 259062 | 274669
23 | 61:02.20 | 1:09.71 | 274670 | 279915
24 | 62:12.16 | 3:03.27 | 279916 | 293667
25 | 65:15.43 | 1:29.69 | 293668 | 300411
26 | 66:45.37 | 2:25.00 | 300412 | 311286

Track 1

Filename F:\Lossless\Песнопения Божественной Литургии Древнерусской Церкви\01 - Великая ектения.ape

Pre-gap length 0:00:02.00

Peak level 98.0 %
Track quality 100.0 %
Test CRC F04B8914
Copy CRC F04B8914
Copy OK

Track 2

Filename F:\Lossless\Песнопения Божественной Литургии Древнерусской Церкви\02 - Псалом 102, гласы 2 и 5.ape

Peak level 98.0 %
Track quality 99.9 %
Test CRC A61FE487
Copy CRC A61FE487
Copy OK

Track 3

Filename F:\Lossless\Песнопения Божественной Литургии Древнерусской Церкви\03 - Малая ектения.ape

Peak level 94.1 %
Track quality 100.0 %
Test CRC 1D29BCE7
Copy CRC 1D29BCE7
Copy OK

Track 4

Filename F:\Lossless\Песнопения Божественной Литургии Древнерусской Церкви\04 - Слава- Псалом 145, подобен 4 гласа.ape

Peak level 82.4 %
Track quality 100.0 %
Test CRC ACFBD4C0
Copy CRC ACFBD4C0
Copy OK

Track 5

Filename F:\Lossless\Песнопения Божественной Литургии Древнерусской Церкви\05 - И ныне- Единородный Сыне.ape

Peak level 82.4 %
Track quality 100.0 %
Test CRC 0015184A
Copy CRC 0015184A
Copy OK

Track 6

Filename F:\Lossless\Песнопения Божественной Литургии Древнерусской Церкви\06 - Малая ектения.ape

Peak level 82.4 %
Track quality 100.0 %
Test CRC EA11F12D
Copy CRC EA11F12D
Copy OK

Track 7

Filename F:\Lossless\Песнопения Божественной Литургии Древнерусской Церкви\07 - Во Царствии Твоем- Блаженны Сретения, глас 3.ape

Peak level 92.7 %
Track quality 99.9 %
Test CRC 44BFE319
Copy CRC 44BFE319
Copy OK

Track 8

Filename F:\Lossless\Песнопения Божественной Литургии Древнерусской Церкви\08 - Приидите, поклонимся.ape

Pre-gap length 0:00:02.23

Peak level 82.9 %
Track quality 100.0 %
Test CRC DE4FC8D7
Copy CRC DE4FC8D7
Copy OK

Track 9

Filename F:\Lossless\Песнопения Божественной Литургии Древнерусской Церкви\09 - Тропарь Сретения, глас 1.ape

Peak level 56.4 %
Track quality 100.0 %
Test CRC DB69BE7A
Copy CRC DB69BE7A
Copy OK

Track 10

Filename F:\Lossless\Песнопения Божественной Литургии Древнерусской Церкви\10 - Слава, и ныне- Кондак Сретения, глас 4.ape

Peak level 70.8 %
Track quality 100.0 %
Test CRC 1D4BB11D
Copy CRC 1D4BB11D
Copy OK

Track 11

Filename F:\Lossless\Песнопения Божественной Литургии Древнерусской Церкви\11 - Трисвятое.ape

Pre-gap length 0:00:03.11

Peak level 65.0 %
Track quality 100.0 %
Test CRC D0A27F63
Copy CRC D0A27F63
Copy OK

Track 12

Filename F:\Lossless\Песнопения Божественной Литургии Древнерусской Церкви\12 - Прокимен, глас 3, песнь Богородицы.ape

Peak level 70.9 %
Track quality 100.0 %
Test CRC 024B15B2
Copy CRC 024B15B2
Copy OK

Track 13

Filename F:\Lossless\Песнопения Божественной Литургии Древнерусской Церкви\13 - Апостол.ape

Peak level 95.9 %
Track quality 100.0 %
Test CRC 407370FB
Copy CRC 407370FB
Copy OK

Track 14

Filename F:\Lossless\Песнопения Божественной Литургии Древнерусской Церкви\14 - Аллилуиа.ape

Peak level 96.8 %
Track quality 100.0 %
Test CRC 7F6D409E
Copy CRC 7F6D409E
Copy OK

Track 15

Filename F:\Lossless\Песнопения Божественной Литургии Древнерусской Церкви\15 - Евангелие.ape

Peak level 98.0 %
Track quality 100.0 %
Test CRC E9835D94
Copy CRC E9835D94
Copy OK

Track 16

Filename F:\Lossless\Песнопения Божественной Литургии Древнерусской Церкви\16 - Сугубая ектения.ape

Peak level 87.1 %
Track quality 100.0 %
Test CRC 9A101152
Copy CRC 9A101152
Copy OK

Track 17

Filename F:\Lossless\Песнопения Божественной Литургии Древнерусской Церкви\17 - Херувимская песнь.ape

Pre-gap length 0:00:02.24

Suspicious position 0:05:46

Peak level 98.0 %
Track quality 99.8 %
Test CRC E863A431
Copy CRC E863A431
Copy finished

Track 18

Filename F:\Lossless\Песнопения Божественной Литургии Древнерусской Церкви\18 - Отца и Сына и Святаго Духа.ape

Pre-gap length 0:00:02.67

Peak level 82.4 %
Track quality 100.0 %
Test CRC 0B7E6C93
Copy CRC 0B7E6C93
Copy OK

Track 19

Filename F:\Lossless\Песнопения Божественной Литургии Древнерусской Церкви\19 - Милость мира.ape

Pre-gap length 0:00:02.35

Peak level 71.9 %
Track quality 100.0 %
Test CRC 86CA82AE
Copy CRC 86CA82AE
Copy OK

Track 20

Filename F:\Lossless\Песнопения Божественной Литургии Древнерусской Церкви\20 - Задостойник Сретения, глас 3; И всех, и вся.ape

Pre-gap length 0:00:02.71

Peak level 82.4 %
Track quality 100.0 %
Test CRC FE7AFA59
Copy CRC FE7AFA59
Copy OK

Track 21

Filename F:\Lossless\Песнопения Божественной Литургии Древнерусской Церкви\21 - Просительная ектения.ape

Peak level 81.2 %
Track quality 99.9 %
Test CRC 407F892F
Copy CRC 407F892F
Copy OK

Track 22

Filename F:\Lossless\Песнопения Божественной Литургии Древнерусской Церкви\22 - Отче наш.ape

Peak level 76.2 %
Track quality 100.0 %
Test CRC 9BD1EC64
Copy CRC 9BD1EC64
Copy OK

Track 23

Filename F:\Lossless\Песнопения Божественной Литургии Древнерусской Церкви\23 - Един Свят.ape

Pre-gap length 0:00:01.74

Peak level 55.6 %
Track quality 100.0 %
Test CRC 94429122
Copy CRC 94429122
Copy OK

Track 24

Filename F:\Lossless\Песнопения Божественной Литургии Древнерусской Церкви\24 - Причастен Богородицы.ape

Peak level 82.4 %
Track quality 100.0 %
Test CRC 2CA5CFD4
Copy CRC 2CA5CFD4
Copy OK

Track 25

Filename F:\Lossless\Песнопения Божественной Литургии Древнерусской Церкви\25 - Благословен Грядый; Видехом Свет Истинный; Да исполнятся уста наша.ape

Pre-gap length 0:00:02.65

Peak level 66.0 %
Track quality 100.0 %
Test CRC AF7B71B3
Copy CRC AF7B71B3
Copy OK

Track 26

Filename F:\Lossless\Песнопения Божественной Литургии Древнерусской Церкви\26 - Прости приимше; Буди имя Господне; Отпуст.ape

Peak level 81.0 %
Track quality 100.0 %
Test CRC 8FDCABB9
Copy CRC 8FDCABB9
Copy OK

There were errors

End of status report



Песнопения Божественной Литургии Иверской Церкви


pic
Жанр: Духовные песнопения
Год выпуска диска: 2001
Производитель диска: Украина

Аудио кодек: APE
Тип рипа: track+.cue
Битрейт аудио: lossless
Продолжительность: 0:36:46.45

Трэклист:
01. Великая ектения
02. Псалом 102
03. Малая ектения
04. Слава: Псалом 145
05. И ныне: Единородный Сыне
06. Малая ектения
07. Во Царствии Твоем
08. Приидите, поклонимся
09. Взбранной Воеводе
10. Трисвятое
11. Аллилуиа
12. И духови твоему; Слава Тебе, Господи; Сугубая ектения
13. Заупокойная сугубая ектения
14. Херувимская песнь
15. Отца и Сына и Святаго Духа
16. Милость мира
17. Достойно есть
18. И всех и вся; Аминь; И духови твоему
19. Един Свят; Причастен воскресный; Аллилуиа
20. Многая лета
log
EAC extraction logfile from 26. April 2009, 12:33 for CD
Ансамбль "Сретение" под. упр. И. Сахно / Песнопения Божественной Литургии Иверской Церкви

Used drive : HL-DT-STDVD-RAM GSA-H30N Adapter: 4 ID: 0
Read mode : Secure with NO C2, accurate stream, disable cache
Read offset correction : 102
Overread into Lead-In and Lead-Out : No

Used output format : Monkey's Audio Lossless Encoder v3.99 DLL
Normal Lossless Compression

Other options :
Fill up missing offset samples with silence : Yes
Delete leading and trailing silent blocks : No
Native Win32 interface for Win NT & 2000

Track 1
Filename F:\Lossless\Сахно Игорь\Песнопения Божественной Литургии Иверской Церкви\01 - Великая ектения.ape

Pre-gap length 0:00:02.00

Peak level 97.0 %
Track quality 100.0 %
Test CRC 2AD88041
Copy CRC 2AD88041
Copy OK

Track 2
Filename F:\Lossless\Сахно Игорь\Песнопения Божественной Литургии Иверской Церкви\02 - Псалом 102.ape

Pre-gap length 0:00:02.07

Peak level 92.7 %
Track quality 100.0 %
Test CRC 50A23872
Copy CRC 50A23872
Copy OK

Track 3
Filename F:\Lossless\Сахно Игорь\Песнопения Божественной Литургии Иверской Церкви\03 - Малая ектения.ape

Pre-gap length 0:00:01.61

Peak level 42.6 %
Track quality 100.0 %
Test CRC 59E94C50
Copy CRC 59E94C50
Copy OK

Track 4
Filename F:\Lossless\Сахно Игорь\Песнопения Божественной Литургии Иверской Церкви\04 - Слава- Псалом 145.ape

Peak level 83.3 %
Track quality 100.0 %
Test CRC 6DBFC2C6
Copy CRC 6DBFC2C6
Copy OK

Track 5
Filename F:\Lossless\Сахно Игорь\Песнопения Божественной Литургии Иверской Церкви\05 - И ныне- Единородный Сыне.ape

Peak level 61.5 %
Track quality 100.0 %
Test CRC DA127035
Copy CRC DA127035
Copy OK

Track 6
Filename F:\Lossless\Сахно Игорь\Песнопения Божественной Литургии Иверской Церкви\06 - Малая ектения.ape

Peak level 42.6 %
Track quality 100.0 %
Test CRC E7857800
Copy CRC E7857800
Copy OK

Track 7
Filename F:\Lossless\Сахно Игорь\Песнопения Божественной Литургии Иверской Церкви\07 - Во Царствии Твоем.ape

Pre-gap length 0:00:02.29

Peak level 75.0 %
Track quality 100.0 %
Test CRC 90F009BD
Copy CRC 90F009BD
Copy OK

Track 8
Filename F:\Lossless\Сахно Игорь\Песнопения Божественной Литургии Иверской Церкви\08 - Приидите, поклонимся.ape

Pre-gap length 0:00:01.70

Peak level 81.0 %
Track quality 100.0 %
Test CRC 3935FBCF
Copy CRC 3935FBCF
Copy OK

Track 9
Filename F:\Lossless\Сахно Игорь\Песнопения Божественной Литургии Иверской Церкви\09 - Взбранной Воеводе.ape

Pre-gap length 0:00:02.74

Peak level 98.0 %
Track quality 100.0 %
Test CRC CE95E912
Copy CRC CE95E912
Copy OK

Track 10
Filename F:\Lossless\Сахно Игорь\Песнопения Божественной Литургии Иверской Церкви\10 - Трисвятое.ape

Pre-gap length 0:00:01.07

Peak level 84.5 %
Track quality 100.0 %
Test CRC 59BC294A
Copy CRC 59BC294A
Copy OK

Track 11
Filename F:\Lossless\Сахно Игорь\Песнопения Божественной Литургии Иверской Церкви\11 - Аллилуиа.ape

Pre-gap length 0:00:01.49

Peak level 74.1 %
Track quality 100.0 %
Test CRC 010D244D
Copy CRC 010D244D
Copy OK

Track 12
Filename F:\Lossless\Сахно Игорь\Песнопения Божественной Литургии Иверской Церкви\12 - И духови твоему; Слава Тебе, Господи; Сугубая ектения.ape

Pre-gap length 0:00:02.23

Peak level 82.4 %
Track quality 99.9 %
Test CRC 68B02587
Copy CRC 68B02587
Copy OK

Track 13
Filename F:\Lossless\Сахно Игорь\Песнопения Божественной Литургии Иверской Церкви\13 - Заупокойная сугубая ектения.ape

Peak level 51.0 %
Track quality 100.0 %
Test CRC 9D78C1D6
Copy CRC 9D78C1D6
Copy OK

Track 14
Filename F:\Lossless\Сахно Игорь\Песнопения Божественной Литургии Иверской Церкви\14 - Херувимская песнь.ape

Pre-gap length 0:00:02.38

Peak level 98.0 %
Track quality 100.0 %
Test CRC 44185954
Copy CRC 44185954
Copy OK

Track 15
Filename F:\Lossless\Сахно Игорь\Песнопения Божественной Литургии Иверской Церкви\15 - Отца и Сына и Святаго Духа.ape

Pre-gap length 0:00:01.49

Peak level 94.3 %
Track quality 99.7 %
Test CRC B41CDBD9
Copy CRC B41CDBD9
Copy OK

Track 16
Filename F:\Lossless\Сахно Игорь\Песнопения Божественной Литургии Иверской Церкви\16 - Милость мира.ape

Pre-gap length 0:00:01.71

Peak level 92.4 %
Track quality 100.0 %
Test CRC F880BA18
Copy CRC F880BA18
Copy OK

Track 17
Filename F:\Lossless\Сахно Игорь\Песнопения Божественной Литургии Иверской Церкви\17 - Достойно есть.ape

Pre-gap length 0:00:02.03

Peak level 97.8 %
Track quality 100.0 %
Test CRC A29183D2
Copy CRC A29183D2
Copy OK

Track 18
Filename F:\Lossless\Сахно Игорь\Песнопения Божественной Литургии Иверской Церкви\18 - И всех и вся; Аминь; И духови твоему.ape

Peak level 86.0 %
Track quality 100.0 %
Test CRC 1CF207D8
Copy CRC 1CF207D8
Copy OK

Track 19
Filename F:\Lossless\Сахно Игорь\Песнопения Божественной Литургии Иверской Церкви\19 - Един Свят; Причастен воскресный; Аллилуиа.ape

Pre-gap length 0:00:01.70

Peak level 82.4 %
Track quality 99.8 %
Test CRC 764EC815
Copy CRC 764EC815
Copy OK

Track 20
Filename F:\Lossless\Сахно Игорь\Песнопения Божественной Литургии Иверской Церкви\20 - Многая лета.ape

Pre-gap length 0:00:02.58

Peak level 89.5 %
Track quality 100.0 %
Test CRC E8139ED6
Copy CRC E8139ED6
Copy OK

No errors occured

End of status report



Песнопения Божественной Литургии Элладской Церкви


pic
Жанр: Духовные песнопения
Год выпуска диска: 2001
Производитель диска: Украина

Аудио кодек: APE
Тип рипа: track+.cue
Битрейт аудио: lossless
Продолжительность: 0:51:25.40

Трэклист:
01. Великая ектения, глас 8
02. Псалом 102, глас 8
03. Малая ектения
04. Слава: Псалом 145
05. И ныне: Единородный Сыне, глас 5
06. Малая ектения
07. Во Царствии Твоем, глас 3
08. Приидите, поклонимся, глас 2
09. Возбранной Воеводе, глас 8
10. Господи, спаси благочестивыя, глас 3; Трисвятое
11. Динамис, глас 1
12. Аллилуиа, глас 1
13. Слава Тебе, Господи, глас 4; Сугубая ектения, глас 1
14. Сугубая ектения, глас 2
15. Херувимская песнь, глас 8
16. Просительная ектения, глас 5
17. Отца и Сына и Святаго Духа, глас 6
18. Милость мира, глас 1
19. Достойно есть, глас 6
20. Причастен воскресный, глас 5 (прп. Иоанн Кукузель)
21. Многолетие иерею, глас 2
log
Exact Audio Copy V0.99 prebeta 4 from 23. January 2008

EAC extraction logfile from 29. April 2009, 10:12

Ансамбль "Сретение" под упр. И. Сахно / Песнопения Божественной Литургии Элладской Церкви

Used drive : PLEXTOR DVDR PX-712A Adapter: 5 ID: 0

Read mode : Secure
Utilize accurate stream : Yes
Defeat audio cache : Yes
Make use of C2 pointers : No

Read offset correction : 30
Overread into Lead-In and Lead-Out : No
Fill up missing offset samples with silence : Yes
Delete leading and trailing silent blocks : No
Null samples used in CRC calculations : Yes
Used interface : Native Win32 interface for Win NT & 2000
Gap handling : Appended to previous track

Used output format : Monkey's Audio Lossless Encoder v3.99 DLL
Sample format : Normal Lossless Compression

TOC of the extracted CD

Track | Start | Length | Start sector | End sector
---------------------------------------------------------
1 | 0:00.00 | 1:16.02 | 0 | 5701
2 | 1:16.02 | 5:11.45 | 5702 | 29071
3 | 6:27.47 | 0:27.52 | 29072 | 31148
4 | 6:55.24 | 1:39.66 | 31149 | 38639
5 | 8:35.15 | 0:58.28 | 38640 | 43017
6 | 9:33.43 | 0:28.28 | 43018 | 45145
7 | 10:01.71 | 2:30.29 | 45146 | 56424
8 | 12:32.25 | 0:49.24 | 56425 | 60123
9 | 13:21.49 | 1:32.07 | 60124 | 67030
10 | 14:53.56 | 2:45.10 | 67031 | 79415
11 | 17:38.66 | 4:12.18 | 79416 | 98333
12 | 21:51.09 | 1:39.58 | 98334 | 105816
13 | 23:30.67 | 1:16.14 | 105817 | 111530
14 | 24:47.06 | 1:21.59 | 111531 | 117664
15 | 26:08.65 | 7:10.04 | 117665 | 149918
16 | 33:18.69 | 1:08.28 | 149919 | 155046
17 | 34:27.22 | 0:33.24 | 155047 | 157545
18 | 35:00.46 | 5:30.70 | 157546 | 182365
19 | 40:31.41 | 2:21.12 | 182366 | 192952
20 | 42:52.53 | 7:37.28 | 192953 | 227255
21 | 50:30.06 | 0:55.34 | 227256 | 231414

Track 1

Filename F:\Lossless\Песнопения Божественной Литургии Элладской Церкви\01 - Великая ектения, глас 8.ape

Pre-gap length 0:00:02.00

Peak level 85.2 %
Track quality 99.8 %
Test CRC CEF8028B
Copy CRC CEF8028B
Copy OK

Track 2

Filename F:\Lossless\Песнопения Божественной Литургии Элладской Церкви\02 - Псалом 102, глас 8.ape

Peak level 100.0 %
Track quality 100.0 %
Test CRC 741EAE3E
Copy CRC 741EAE3E
Copy OK

Track 3

Filename F:\Lossless\Песнопения Божественной Литургии Элладской Церкви\03 - Малая ектения.ape

Pre-gap length 0:00:01.70

Peak level 59.1 %
Track quality 100.0 %
Test CRC F1765159
Copy CRC F1765159
Copy OK

Track 4

Filename F:\Lossless\Песнопения Божественной Литургии Элладской Церкви\04 - Слава- Псалом 145.ape

Pre-gap length 0:00:02.24

Peak level 84.1 %
Track quality 100.0 %
Test CRC 5A4EA857
Copy CRC 5A4EA857
Copy OK

Track 5

Filename F:\Lossless\Песнопения Божественной Литургии Элладской Церкви\05 - И ныне- Единородный Сыне, глас 5.ape

Peak level 84.1 %
Track quality 100.0 %
Test CRC F1DC8F2F
Copy CRC F1DC8F2F
Copy OK

Track 6

Filename F:\Lossless\Песнопения Божественной Литургии Элладской Церкви\06 - Малая ектения.ape

Pre-gap length 0:00:00.02

Peak level 50.1 %
Track quality 100.0 %
Test CRC 825E720D
Copy CRC 825E720D
Copy OK

Track 7

Filename F:\Lossless\Песнопения Божественной Литургии Элладской Церкви\07 - Во Царствии Твоем, глас 3.ape

Pre-gap length 0:00:01.98

Peak level 84.1 %
Track quality 100.0 %
Test CRC F62886F0
Copy CRC F62886F0
Copy OK

Track 8

Filename F:\Lossless\Песнопения Божественной Литургии Элладской Церкви\08 - Приидите, поклонимся, глас 2.ape

Pre-gap length 0:00:02.20

Peak level 89.4 %
Track quality 100.0 %
Test CRC 64D3DE30
Copy CRC 64D3DE30
Copy OK

Track 9

Filename F:\Lossless\Песнопения Божественной Литургии Элладской Церкви\09 - Возбранной Воеводе, глас 8.ape

Pre-gap length 0:00:02.06

Peak level 84.1 %
Track quality 100.0 %
Test CRC 09812E2E
Copy CRC 09812E2E
Copy OK

Track 10

Filename F:\Lossless\Песнопения Божественной Литургии Элладской Церкви\10 - Господи, спаси благочестивыя, глас 3; Трисвятое.ape

Pre-gap length 0:00:02.10

Peak level 98.3 %
Track quality 100.0 %
Test CRC 192E3B44
Copy CRC 192E3B44
Copy OK

Track 11

Filename F:\Lossless\Песнопения Божественной Литургии Элладской Церкви\11 - Динамис, глас 1.ape

Peak level 84.1 %
Track quality 100.0 %
Test CRC 75743BE4
Copy CRC 75743BE4
Copy OK

Track 12

Filename F:\Lossless\Песнопения Божественной Литургии Элладской Церкви\12 - Аллилуиа, глас 1.ape

Pre-gap length 0:00:02.09

Peak level 86.6 %
Track quality 100.0 %
Test CRC 46FD1BB3
Copy CRC 46FD1BB3
Copy OK

Track 13

Filename F:\Lossless\Песнопения Божественной Литургии Элладской Церкви\13 - Слава Тебе, Господи, глас 4; Сугубая ектения, глас 1.ape

Pre-gap length 0:00:02.30

Peak level 84.1 %
Track quality 100.0 %
Test CRC 476244AE
Copy CRC 476244AE
Copy OK

Track 14

Filename F:\Lossless\Песнопения Божественной Литургии Элладской Церкви\14 - Сугубая ектения, глас 2.ape

Pre-gap length 0:00:00.04

Peak level 67.7 %
Track quality 100.0 %
Test CRC 3A2F2013
Copy CRC 3A2F2013
Copy OK

Track 15

Filename F:\Lossless\Песнопения Божественной Литургии Элладской Церкви\15 - Херувимская песнь, глас 8.ape

Pre-gap length 0:00:02.44

Peak level 84.1 %
Track quality 100.0 %
Test CRC 0CF018EF
Copy CRC 0CF018EF
Copy OK

Track 16

Filename F:\Lossless\Песнопения Божественной Литургии Элладской Церкви\16 - Просительная ектения, глас 5.ape

Pre-gap length 0:00:02.02

Peak level 84.1 %
Track quality 100.0 %
Test CRC A6D68F44
Copy CRC A6D68F44
Copy OK

Track 17

Filename F:\Lossless\Песнопения Божественной Литургии Элладской Церкви\17 - Отца и Сына и Святаго Духа, глас 6.ape

Pre-gap length 0:00:01.00

Peak level 84.1 %
Track quality 100.0 %
Test CRC 17784D91
Copy CRC 17784D91
Copy OK

Track 18

Filename F:\Lossless\Песнопения Божественной Литургии Элладской Церкви\18 - Милость мира, глас 1.ape

Pre-gap length 0:00:02.30

Peak level 87.0 %
Track quality 100.0 %
Test CRC 94E8DFC3
Copy CRC 94E8DFC3
Copy OK

Track 19

Filename F:\Lossless\Песнопения Божественной Литургии Элладской Церкви\19 - Достойно есть, глас 6.ape

Pre-gap length 0:00:01.98

Peak level 84.1 %
Track quality 100.0 %
Test CRC 5C17680F
Copy CRC 5C17680F
Copy OK

Track 20

Filename F:\Lossless\Песнопения Божественной Литургии Элладской Церкви\20 - Причастен воскресный, глас 5 (прп. Иоанн Кукузель).ape

Pre-gap length 0:00:02.02

Peak level 84.1 %
Track quality 100.0 %
Test CRC D338E02B
Copy CRC D338E02B
Copy OK

Track 21

Filename F:\Lossless\Песнопения Божественной Литургии Элладской Церкви\21 - Многолетие иерею, глас 2.ape

Pre-gap length 0:00:01.98

Peak level 87.0 %
Track quality 99.8 %
Test CRC 41CCB8BD
Copy CRC 41CCB8BD
Copy OK

No errors occurred

End of status report
Download

Войдите на сайт, чтобы увидеть полную информацию.

Как скачивать  ·   Правила трекера



Последний раз редактировалось: Manul (2009-08-18 10:04), всего редактировалось 1 раз
[Профиль]  [ЛС] 

jaromar

Стаж: 9 лет 3 месяца

Сообщений: 21

Откуда: Краснодар.

Russia

post 19-Фев-2010 22:02 (спустя 6 месяцев)

[Цитировать] 

СпасиБо.!!!
[Профиль]  [ЛС] 

Manul

Стаж: 9 лет 8 месяцев

Сообщений: 155

Ussr

post 20-Фев-2010 10:50 (спустя 12 часов)

[Цитировать] 

jaromar
Во славу Божию!
[Профиль]  [ЛС] 

makarevi40844

Стаж: 7 лет 10 месяцев

Сообщений: 10

Ukraine

post 01-Июл-2011 20:17 (спустя 1 год 4 месяца)

[Цитировать] 

Слышал этот ансамбль - молодцы!
[Профиль]  [ЛС] 

valaamsky

Стаж: 6 лет 3 месяца

Сообщений: 1

Ukraine

post 01-Фев-2019 17:58 (спустя 7 лет 6 месяцев)

[Цитировать] 

Доброго!

Братья и сестры, помогите, пожалуйста, скачать сии диски. Если сможете, поставьте на раздачу.
[Профиль]  [ЛС] 
Показать сообщения:    
Ответить на тему

Текущее время: 19-Апр 18:34

Часовой пояс: GMT + 4



Вы не можете начинать темы
Вы не можете отвечать на сообщения
Вы не можете редактировать свои сообщения
Вы не можете удалять свои сообщения
Вы не можете голосовать в опросах
Вы не можете прикреплять файлы к сообщениям
Вы не можете скачивать файлы