Loading...
Error

(Церковная музыка и церковные хоры (lossless).) "Дом Пресвятой Богородицы". Регент братского хора Валаамского монастыря иеродиакон Герман (Рябцев). - 1999, APE (image + .cue), lossless

Ответить на тему
Статистика раздачи
   
 
Автор Сообщение

СЕРГУЛЕТ

Стаж: 12 лет

Сообщений: 2637

Откуда: LA ROMANA

Dominicanrep

post 20-Окт-2009 22:41

[Цитировать] 

"Дом Пресвятой Богородицы". Регент братского хора Валаамского монастыря иеродиакон Герман (Рябцев).

pic
Страна: Россия. Продюсерский центр Игоря Матвиенко.
Жанр: Церковная музыка и церковные хоры (lossless).
Год выпуска: 1999
Формат: APE (image + .cue)
Битрейт аудио: lossless
Продолжительность: 00:45:02
Трэклист:
1. Свете тихий (знаменный распев)
2. Архангельский глас (знаменный распев*)
3. Ангел вопияше (знаменный распев*)
4. Херувимская песнь (путевой распев*)
5. Осмогласник на Сретение Господне (знаменный распев*)
6. Приидите, поклонимся (картолино-кахетинский распев)
7. Милость мира (знаменный распев*)
8. Достойно есть (греческое двухголосие)
9. 1 и 9 ирмосы на Рождество Христово (древневизантийский распев на греческом языке*)
10. Трисвятое (византийский распев*)
11. Дом Пресвятой Богородицы (Геннадий Рябцев)
12. Днесь благодать (знаменное троестрочие, расшифровка Успенского)
13. Свете тихий (валаамский распев, гармонизация Трубачева)

* двух- и трехголосое переложение – иеродиакон Герман
1,2 расшифровка иеродиакон Герман
Дополнительная информация: Диск назван по стихотворению, положенному на музыку и необычайно трогательно исполненному братским хором. Вы услышите разные распевы: уже знакомый вам знаменный, а также путевой, греческий, мало известный картолино-кахетинский, византийский и даже древне-византийский (ирмосы на Рождество Христово на греческом языке). Представлен также и образец валаамского распева, который интересно сравнить со знаменным («Свете тихий»).

Хор Валаамского монастыря бережно хранит древние церковно-певческие традиции и с большой душевной теплотой доносит их до слушателей.
EAC log
Exact Audio Copy V0.99 prebeta 5 from 4. May 2009

Отчёт EAC об извлечении, выполненном 20. октября 2009, 10:28

Иеродиакон Герман (Рябцев) / Дом Пресвятой Богородицы

Дисковод: ASUS BC-1205PT Adapter: 1 ID: 0

Режим чтения : Достоверность
Использование точного потока : Да
Отключение кэша аудио : Да
Использование указателей C2 : Нет

Коррекция смещения при чтении : 667
Способность читать области Lead-in и Lead-out : Нет
Заполнение пропущенных сэмплов тишиной : Да
Удаление блоков с тишиной в начале и конце : Нет
При вычислениях CRC использовались нулевые сэмплы : Да
Интерфейс : Встроенный Win32-интерфейс для Win NT/2000

Выходной формат : Внутренние WAV-операции
Формат сэмплов : 44.100 Гц; 16 бит; стерео

TOC извлечённого CD

Трек | Старт | Длительность | Начальный сектор | Конечный сектор
---------------------------------------------------------------------
1 | 0:00.00 | 3:22.69 | 0 | 15218
2 | 3:22.69 | 0:48.09 | 15219 | 18827
3 | 4:11.03 | 2:26.55 | 18828 | 29832
4 | 6:37.58 | 5:57.55 | 29833 | 56662
5 | 12:35.38 | 5:46.65 | 56663 | 82677
6 | 18:22.28 | 1:16.20 | 82678 | 88397
7 | 19:38.48 | 4:42.63 | 88398 | 109610
8 | 24:21.36 | 3:28.25 | 109611 | 125235
9 | 27:49.61 | 1:43.67 | 125236 | 133027
10 | 29:33.53 | 6:48.52 | 133028 | 163679
11 | 36:22.30 | 3:29.50 | 163680 | 179404
12 | 39:52.05 | 2:39.57 | 179405 | 191386
13 | 42:31.62 | 2:28.36 | 191387 | 202522

Характеристики диапазона извлечения и сообщения об ошибках

Выбранный диапазон

Имя файла C:\Иеродиакон Герман (Рябцев) - Дом Пресвятой Богородицы.wav

Пиковый уровень 93.6 %
Качество диапазона 100.0 %
CRC копии DD76A2BA
Копирование... OK

Ошибок не произошло
Конец отчёта
Download

Войдите на сайт, чтобы увидеть полную информацию.

Как скачивать  ·   Правила трекера

[Профиль]  [ЛС] 

Алвин Дион

Стаж: 11 лет

Сообщений: 43

Откуда: Ниж.Новгород - Като Нэаполи

Greece

post 10-Фев-2010 00:54 (спустя 3 месяца 20 дней)

[Цитировать] 

Очень и очень даже оригинальное исполнение! На простом приходе такого точно не услышишь - всё больше оперу дают...А тут такое "Северное Сияние" - аж дух захватывает!Спаси Христос!

_________________
Искусство быть мудрым состоит в умении знать, на что не следует обращать внимания.
[Профиль]  [ЛС] 

rexxxer

Стаж: 11 лет

Сообщений: 137

Откуда: Россия

Russia

post 10-Фев-2010 08:30 (спустя 7 часов)

[Цитировать] 

Дайте скорость!!!

_________________
pic
[Профиль]  [ЛС] 

Idealist

Стаж: 9 лет

Сообщений: 58

Russia

post 15-Ноя-2011 14:18 (спустя 1 год 9 месяцев)

[Цитировать] 

Спаси Вас, Господи, Сергулет! Благодарю за чудесные раздачи!
[Профиль]  [ЛС] 

uk9cbd

Стаж: 6 лет 11 месяцев

Сообщений: 141

Russia

post 09-Окт-2020 15:39 (спустя 8 лет 10 месяцев)

[Цитировать] 

Премного благодарен!

_________________
Мир всем...
[Профиль]  [ЛС] 

zoranzivojinovic

Стаж: 2 года 9 месяцев

Сообщений: 63

Australia

post 26-Ноя-2020 19:19 (спустя 1 месяц 17 дней)

[Цитировать] 

Благодарю за чудесные раздачи!
[Профиль]  [ЛС] 
Показать сообщения:    
Ответить на тему

Текущее время: 02-Мар 07:13

Часовой пояс: GMT + 4



Вы не можете начинать темы
Вы не можете отвечать на сообщения
Вы не можете редактировать свои сообщения
Вы не можете удалять свои сообщения
Вы не можете голосовать в опросах
Вы не можете прикреплять файлы к сообщениям
Вы не можете скачивать файлы