Loading...
Error

(Акафисты, каноны, молебны (lossless)) "Акафист Святителю Луке, архиепископу Симферопольскому и Крымскому". - 2008, APE (image + .cue), lossless

Ответить на тему
Статистика раздачи
Скачали: [ 8 ]
   
 
Автор Сообщение

СЕРГУЛЕТ

Стаж: 8 лет 3 месяца

Сообщений: 2639

Откуда: LA ROMANA

Dominicanrep

post 27-Дек-2009 13:25

[Цитировать] 

"Акафист Святителю Луке, архиепископу Симферопольскому и Крымскому".

pic
Страна: Украина.
Жанр: Акафисты, каноны, молебны (lossless)
Год выпуска: 2008
Формат: APE (image + .cue)
Битрейт аудио: lossless
Продолжительность: 01:19:12
Обложки+Содержание
picpicpic
EAC log
Exact Audio Copy V0.99 prebeta 5 from 4. May 2009

Отчёт EAC об извлечении, выполненном 25. декабря 2009, 8:45

- / Акафист Святителю Луке

Дисковод: ASUS BC-1205PT Adapter: 1 ID: 0

Режим чтения : Достоверность
Использование точного потока : Да
Отключение кэша аудио : Да
Использование указателей C2 : Нет

Коррекция смещения при чтении : 667
Способность читать области Lead-in и Lead-out : Нет
Заполнение пропущенных сэмплов тишиной : Да
Удаление блоков с тишиной в начале и конце : Нет
При вычислениях CRC использовались нулевые сэмплы : Да
Интерфейс : Встроенный Win32-интерфейс для Win NT/2000

Выходной формат : Внутренние WAV-операции
Формат сэмплов : 44.100 Гц; 16 бит; стерео

TOC извлечённого CD

Трек | Старт | Длительность | Начальный сектор | Конечный сектор
---------------------------------------------------------------------
1 | 0:00.00 | 42:40.35 | 0 | 192034
2 | 42:40.35 | 36:29.51 | 192035 | 356260

Характеристики диапазона извлечения и сообщения об ошибках

Выбранный диапазон

Имя файла C:\Акафист Святителю Луке.wav

Пиковый уровень 100.0 %
Качество диапазона 100.0 %
CRC копии 99B95FBC
Копирование... OK

Ошибок не произошло

AccurateRip: сводка
Трек 1 нет в базе данных
Трек 2 нет в базе данных
Ни одного трека нет в базе AccurateRip

Конец отчёта

------------------------------------------------------------

Exact Audio Copy V0.99 prebeta 5 from 4. May 2009

Отчёт EAC об извлечении, выполненном 25. декабря 2009, 8:45

- / Акафист Святителю Луке

Дисковод: ASUS BC-1205PT Adapter: 1 ID: 0

Режим чтения : Достоверность
Использование точного потока : Да
Отключение кэша аудио : Да
Использование указателей C2 : Нет

Коррекция смещения при чтении : 667
Способность читать области Lead-in и Lead-out : Нет
Заполнение пропущенных сэмплов тишиной : Да
Удаление блоков с тишиной в начале и конце : Нет
При вычислениях CRC использовались нулевые сэмплы : Да
Интерфейс : Встроенный Win32-интерфейс для Win NT/2000

Выходной формат : Внутренние WAV-операции
Формат сэмплов : 44.100 Гц; 16 бит; стерео

TOC извлечённого CD

Трек | Старт | Длительность | Начальный сектор | Конечный сектор
---------------------------------------------------------------------
1 | 0:00.00 | 42:40.35 | 0 | 192034
2 | 42:40.35 | 36:29.51 | 192035 | 356260

Характеристики диапазона извлечения и сообщения об ошибках

Выбранный диапазон

Имя файла C:\Акафист Святителю Луке.wav

Пиковый уровень 100.0 %
Качество диапазона 100.0 %
CRC копии 99B95FBC
Копирование... OK

Ошибок не произошло

AccurateRip: сводка
Трек 1 нет в базе данных
Трек 2 нет в базе данных
Ни одного трека нет в базе AccurateRip

Конец отчёта
Дополнительная информация: Акафист читает Высокопреосвященнейший Лазарь, Митрополит Симферопольский и Крымский.
Мужской Архиерейский хор Симферопольской и Крымской Епархии.
Регент- диакон Александр Киев.
Download

Войдите для скачивания торрент-файла

Как скачивать  ·   Правила трекера

[Профиль]  [ЛС] 

Anatolem

Стаж: 7 лет 8 месяцев

Сообщений: 69

Откуда: Украина, г. Макеевка

Ussr

post 06-Май-2010 20:10 (спустя 4 месяца 10 дней)

[Цитировать] 

С праздником! Спаси Вас Господи!

_________________
Слава Святей, и Единосущней, и Животворящей, и Нераздельней Троице всегда, ныне и присно, и во веки веков!
[Профиль]  [ЛС] 

maxvell

Стаж: 6 лет 7 месяцев

Сообщений: 76

Ukraine

post 11-Июн-2011 12:01 (спустя 1 год 1 месяц)

[Цитировать] 

Спасибо раздающему!
[Профиль]  [ЛС] 

bsergey17

Стаж: 7 лет 6 месяцев

Сообщений: 12

Откуда: Украина

Ukraine

post 22-Дек-2011 14:53 (спустя 6 месяцев)

[Цитировать] 

Спаси Вас Господи !!
[Профиль]  [ЛС] 

Анна ..

Стаж: 4 года 3 месяца

Сообщений: 1

Ukraine

post 05-Июн-2013 17:51 (спустя 1 год 5 месяцев)

[Цитировать] 

Спаси Вас ГОСПОДИ!!!
[Профиль]  [ЛС] 
Показать сообщения:    
Ответить на тему

Текущее время: 25-Май 12:46

Часовой пояс: GMT + 4



Вы не можете начинать темы
Вы не можете отвечать на сообщения
Вы не можете редактировать свои сообщения
Вы не можете удалять свои сообщения
Вы не можете голосовать в опросах
Вы не можете прикреплять файлы к сообщениям
Вы не можете скачивать файлы