Loading...
Error

(Акафисты, каноны, молебны (lossless).) "Акафист Господу Иисусу Христу". - 2009, APE (image + .cue), lossless

Ответить на тему
Статистика раздачи
Скачали: [ 6 ]
   
 
Автор Сообщение

СЕРГУЛЕТ

Стаж: 7 лет 9 месяцев

Сообщений: 2639

Откуда: LA ROMANA

Dominicanrep

post 26-Дек-2009 12:56

[Цитировать] 

"Акафист Господу Иисусу Христу".

pic
Страна: Сербия. монастырь Лешье.
Жанр: Акафисты, каноны, молебны (lossless).
Год выпуска: 2009
Формат: APE (image + .cue)
Битрейт аудио: lossless
Продолжительность: 00:40:24
Трэклист:
1. Клепало. 1:02.
2. Благословен Бог наш...2:21.
3. Трисвятое. 0:37.
4. Псалом 50. 3:35.
5. Символ Веры. 1:39.
6. Акафист. 24:08.
7. Молитва. 1:29.
8. Сугубая Ектения. 1:39.
9. Отпуст . 1:19.
10. Звон. 1:00.
Дополнительная информация: О Монастыре:http://manastirulesju.org.rs/RUSKI/index_rus.htm
Обложки+Содержание
picpic
EAC log
Exact Audio Copy V0.99 prebeta 5 from 4. May 2009

Отчёт EAC об извлечении, выполненном 24. декабря 2009, 20:21

Хор монастыря / Акафист Иисусу Христу

Дисковод: ASUS BC-1205PT Adapter: 1 ID: 0

Режим чтения : Достоверность
Использование точного потока : Да
Отключение кэша аудио : Да
Использование указателей C2 : Нет

Коррекция смещения при чтении : 667
Способность читать области Lead-in и Lead-out : Нет
Заполнение пропущенных сэмплов тишиной : Да
Удаление блоков с тишиной в начале и конце : Нет
При вычислениях CRC использовались нулевые сэмплы : Да
Интерфейс : Встроенный Win32-интерфейс для Win NT/2000

Выходной формат : Внутренние WAV-операции
Формат сэмплов : 44.100 Гц; 16 бит; стерео

TOC извлечённого CD

Трек | Старт | Длительность | Начальный сектор | Конечный сектор
---------------------------------------------------------------------
1 | 0:00.00 | 1:00.03 | 0 | 4502
2 | 1:00.03 | 2:19.41 | 4503 | 14968
3 | 3:19.44 | 0:35.60 | 14969 | 17653
4 | 3:55.29 | 3:33.28 | 17654 | 33656
5 | 7:28.57 | 1:37.14 | 33657 | 40945
6 | 9:05.71 | 24:06.55 | 40946 | 149450
7 | 33:12.51 | 1:27.71 | 149451 | 156046
8 | 34:40.47 | 1:45.10 | 156047 | 163931
9 | 36:25.57 | 1:36.64 | 163932 | 171195
10 | 38:02.46 | 2:19.52 | 171196 | 181672

Характеристики диапазона извлечения и сообщения об ошибках

Выбранный диапазон

Имя файла C:\Хор монастыря - Акафист Иисусу Христу.wav

Пиковый уровень 99.9 %
Качество диапазона 100.0 %
CRC копии C63BDFCE
Копирование... OK

Ошибок не произошло

AccurateRip: сводка
Трек 1 нет в базе данных
Трек 2 нет в базе данных
Трек 3 нет в базе данных
Трек 4 нет в базе данных
Трек 5 нет в базе данных
Трек 6 нет в базе данных
Трек 7 нет в базе данных
Трек 8 нет в базе данных
Трек 9 нет в базе данных
Трек 10 нет в базе данных
Ни одного трека нет в базе AccurateRip

Конец отчёта
Download

Войдите для скачивания торрент-файла

Как скачивать  ·   Правила трекера

[Профиль]  [ЛС] 

CEPBEP4

Стаж: 5 лет 9 месяцев

Сообщений: 132

Откуда: ОРЕНБУРГ

Russia

post 07-Апр-2015 13:02 (спустя 5 лет 3 месяца)

[Цитировать] 

Монастырь Покрова Пресвятой Богородицы (Manastir Pokrova Presvete Bogorodice)

Монастырь Пресвятой Богородицы находится в селе Лешье, недалеко от города Парачин. Это место известно своей первозданной природой, многообразием флоры и целебными источниками. Монастырь регулярно посещают местные жители. Монастырь довольно старый, его возникновение относится к 14 веку.
http://serbia-rit.ru/putevoditel/kuda-poehat/goroda...odicy-leshe.html

_________________
pic
pic 100 Мбит/с pic 100 Мбит/с pic
[Профиль]  [ЛС] 
Показать сообщения:    
Ответить на тему

Текущее время: 08-Дек 00:12

Часовой пояс: GMT + 4



Вы не можете начинать темы
Вы не можете отвечать на сообщения
Вы не можете редактировать свои сообщения
Вы не можете удалять свои сообщения
Вы не можете голосовать в опросах
Вы не можете прикреплять файлы к сообщениям
Вы не можете скачивать файлы