Loading...
Error

Акафист преподобной Евфросинии Полоцкой - 2002 год, FLAC (image + .cue), lossless

Ответить на тему
Статистика раздачи
Скачали: [ 2 ]
   
 
Автор Сообщение

andrejpushkaryov

Модератор

Стаж: 7 лет 10 месяцев

Сообщений: 999

Откуда: Ижевск

Russia

post 20-Дек-2009 11:55

[Цитировать] 

Акафист преподобной Евфросинии Полоцкой

pic
Страна: Россия
Жанр: Акафист
Год выпуска: 2002
Формат: FLAC (image + .cue)
Битрейт аудио: lossless
Продолжительность: 49 минут
Описание:
Запись произведена в Крестовоздвиженской церкви Спасо-Евфросиниевского полоцкого женского монастыря в 2002 году. Читает иерей Сергий.
Трэклист:
1. Колокольный звон 0:49
2. Благословен Бог... 0:15
3. Царю Небесный....0:29
4. Бог Господь...1:01
5. Тропарь Преображению Господню.... 0:25
6. Слава...0:07
7. Тропарь преп.Евфросинии Полоцкой..1:06
8. И ныне....0:04
9. К Богородице прилежно ныне притецем...0:32
10. Кондак 1... 1:50
11. Икос 1.. 1:35
12. Кондак 2... 0:41
13. Икос 2.. 1:41
14. Кондак 3... 0:40
15. Икос 3.. 1:49
16. Кондак 4... 0:35
17. Икос 4... 1:53
18. Кондак 5... 0:39
19. Икос 5... 1:57
20. Кондак 6.. 0:41
21. Икос б.. 1:44
22. Кондак.. 7 0:45
23. Икос 7.. 1:50
24. Кондак.. 8 0:42
25. Икос 8.. 1:46
26. Кондак.. 9 0:40
27. Икос 9.. 1:57
28. Кондак.. 10 0:48
29. Икос 10.. 1:56
30. Кондак 11.. 0:42
31. Икос 11.. 1:58
32. Кондак 12.. 0:47
33. Икос 12.. 1:51
34. Кондак 13.1... 0:50
35. Кондак 13.2... 0:52
36. Кондак 13.3... 1:13
37. Икос 1... 1:40
38. Кондак 1.. 1:58
39. Молитва.. 3:24
40. Величание.. 1:01
41. Отпуст... 1:52
EAC log
Exact Audio Copy V0.99 prebeta 5 from 4. May 2009

Отчёт EAC об извлечении, выполненном 19. декабря 2009, 14:45

Unknown Artist / Unknown Title

Дисковод: _NEC DVD_RW ND-4570A Adapter: 0 ID: 1

Режим чтения : Достоверность
Использование точного потока : Да
Отключение кэша аудио : Да
Использование указателей C2 : Нет

Коррекция смещения при чтении : 48
Способность читать области Lead-in и Lead-out : Нет
Заполнение пропущенных сэмплов тишиной : Да
Удаление блоков с тишиной в начале и конце : Нет
При вычислениях CRC использовались нулевые сэмплы : Да
Интерфейс : Установленный внешний ASPI-интерфейс

Выходной формат : Пользовательский кодировщик
Выбранный битрейт : 768 kBit/s
Качество : Высокий
Добавление ID3-тэга : Да
Утилита сжатия : C:\Program Files\Exact Audio Copy\Flac\flac.exe
Дополнительные параметры : -6 -V -T "ARTIST=%a" -T "TITLE=%t" -T "ALBUM=%g" -T "DATE=%y" -T "TRACKNUMBER=%n" -T "GENRE=%m" -T "COMMENT=%e" %s -o %d

TOC извлечённого CD

Трек | Старт | Длительность | Начальный сектор | Конечный сектор
---------------------------------------------------------------------
1 | 0:00.00 | 0:48.33 | 0 | 3632
2 | 0:48.33 | 0:14.54 | 3633 | 4736
3 | 1:03.12 | 0:27.61 | 4737 | 6822
4 | 1:30.73 | 0:59.73 | 6823 | 11320
5 | 2:30.71 | 0:24.13 | 11321 | 13133
6 | 2:55.09 | 0:06.09 | 13134 | 13592
7 | 3:01.18 | 1:05.01 | 13593 | 18468
8 | 4:06.19 | 0:04.16 | 18469 | 18784
9 | 4:10.35 | 0:31.33 | 18785 | 21142
10 | 4:41.68 | 1:49.52 | 21143 | 29369
11 | 6:31.45 | 1:34.65 | 29370 | 36484
12 | 8:06.35 | 0:40.35 | 36485 | 39519
13 | 8:46.70 | 1:40.10 | 39520 | 47029
14 | 10:27.05 | 0:39.04 | 47030 | 49958
15 | 11:06.09 | 1:48.36 | 49959 | 58094
16 | 12:54.45 | 0:34.21 | 58095 | 60665
17 | 13:28.66 | 1:52.49 | 60666 | 69114
18 | 15:21.40 | 0:38.33 | 69115 | 71997
19 | 15:59.73 | 1:56.38 | 71998 | 80735
20 | 17:56.36 | 0:40.69 | 80736 | 83804
21 | 18:37.30 | 1:43.30 | 83805 | 91559
22 | 20:20.60 | 0:44.29 | 91560 | 94888
23 | 21:05.14 | 1:49.45 | 94889 | 103108
24 | 22:54.59 | 0:41.53 | 103109 | 106236
25 | 23:36.37 | 1:45.35 | 106237 | 114146
26 | 25:21.72 | 0:39.13 | 114147 | 117084
27 | 26:01.10 | 1:56.16 | 117085 | 125800
28 | 27:57.26 | 0:47.12 | 125801 | 129337
29 | 28:44.38 | 1:55.42 | 129338 | 138004
30 | 30:40.05 | 0:41.68 | 138005 | 141147
31 | 31:21.73 | 1:57.39 | 141148 | 149961
32 | 33:19.37 | 0:46.00 | 149962 | 153411
33 | 34:05.37 | 1:50.68 | 153412 | 161729
34 | 35:56.30 | 0:49.39 | 161730 | 165443
35 | 36:45.69 | 0:51.23 | 165444 | 169291
36 | 37:37.17 | 1:12.73 | 169292 | 174764
37 | 38:50.15 | 1:39.39 | 174765 | 182228
38 | 40:29.54 | 1:57.11 | 182229 | 191014
39 | 42:26.65 | 3:23.22 | 191015 | 206261
40 | 45:50.12 | 1:00.00 | 206262 | 210761
41 | 46:50.12 | 1:51.04 | 210762 | 219090

Характеристики диапазона извлечения и сообщения об ошибках

Выбранный диапазон

Имя файла F:\Акафист преподобной Евфросинии Полоцкой\Unknown Artist - Unknown Title.wav

Пиковый уровень 63.0 %
Качество диапазона 100.0 %
CRC копии 4F9A9714
Копирование... OK

Ошибок не произошло

AccurateRip: сводка
Трек 1 нет в базе данных
Трек 2 нет в базе данных
Трек 3 нет в базе данных
Трек 4 нет в базе данных
Трек 5 нет в базе данных
Трек 6 нет в базе данных
Трек 7 нет в базе данных
Трек 8 нет в базе данных
Трек 9 нет в базе данных
Трек 10 нет в базе данных
Трек 11 нет в базе данных
Трек 12 нет в базе данных
Трек 13 нет в базе данных
Трек 14 нет в базе данных
Трек 15 нет в базе данных
Трек 16 нет в базе данных
Трек 17 нет в базе данных
Трек 18 нет в базе данных
Трек 19 нет в базе данных
Трек 20 нет в базе данных
Трек 21 нет в базе данных
Трек 22 нет в базе данных
Трек 23 нет в базе данных
Трек 24 нет в базе данных
Трек 25 нет в базе данных
Трек 26 нет в базе данных
Трек 27 нет в базе данных
Трек 28 нет в базе данных
Трек 29 нет в базе данных
Трек 30 нет в базе данных
Трек 31 нет в базе данных
Трек 32 нет в базе данных
Трек 33 нет в базе данных
Трек 34 нет в базе данных
Трек 35 нет в базе данных
Трек 36 нет в базе данных
Трек 37 нет в базе данных
Трек 38 нет в базе данных
Трек 39 нет в базе данных
Трек 40 нет в базе данных
Трек 41 нет в базе данных
Ни одного трека нет в базе AccurateRip

Конец отчёта
Download

Войдите для скачивания торрент-файла

Как скачивать  ·   Правила трекера

[Профиль]  [ЛС] 

vadim001

Стаж: 7 лет 1 месяц

Сообщений: 6

post 15-Мар-2010 02:19 (спустя 2 месяца 25 дней)

[Цитировать] 

Благодарю. Спаси Христос!
[Профиль]  [ЛС] 

kab110870

Стаж: 6 лет 8 месяцев

Сообщений: 8

Откуда: riga

Latvia

post 14-Ноя-2010 22:32 (спустя 7 месяцев)

[Цитировать] 

спаси вас Господи Андрей!!
[Профиль]  [ЛС] 

potemkin11

Стаж: 6 лет 11 месяцев

Сообщений: 42

Belarus

post 12-Янв-2011 12:25 (спустя 1 месяц 27 дней)

[Цитировать] 

Спаси Господи!!
[Профиль]  [ЛС] 
Показать сообщения:    
Ответить на тему

Текущее время: 26-Фев 20:42

Часовой пояс: GMT + 4



Вы не можете начинать темы
Вы не можете отвечать на сообщения
Вы не можете редактировать свои сообщения
Вы не можете удалять свои сообщения
Вы не можете голосовать в опросах
Вы не можете прикреплять файлы к сообщениям
Вы не можете скачивать файлы