Loading...
Error

(Акафисты, каноны, молебны (lossless).) Молебен с акафистом Божией Матери пред чудотворной иконой ея "Всецарица". - 2005, APE (image + .cue), lossless

Ответить на тему
Статистика раздачи
Скачали: [ 7 ]
   
 
Автор Сообщение

СЕРГУЛЕТ

Стаж: 8 лет 3 месяца

Сообщений: 2639

Откуда: LA ROMANA

Dominicanrep

post 16-Дек-2009 13:12

[Цитировать] 

Молебен с акафистом Божией Матери пред чудотворной иконой ея "Всецарица".

pic
Страна: Беларусь.
Жанр: Акафисты, каноны, молебны (lossless).
Год выпуска: 2005
Формат: APE (image + .cue)
Битрейт аудио: lossless
Продолжительность: 00:56:58
Обложки+Содержание
picpicpic
Дополнительная информация: Хор Свято-Петро-Павловского собора.
Регент Ирина Денисова.
EAC log
Exact Audio Copy V0.99 prebeta 5 from 4. May 2009

Отчёт EAC об извлечении, выполненном 16. декабря 2009, 10:16

Хор Минского Петро-Павловского собора / Акафист Всецрарице

Дисковод: ASUS BC-1205PT Adapter: 1 ID: 0

Режим чтения : Достоверность
Использование точного потока : Да
Отключение кэша аудио : Да
Использование указателей C2 : Нет

Коррекция смещения при чтении : 667
Способность читать области Lead-in и Lead-out : Нет
Заполнение пропущенных сэмплов тишиной : Да
Удаление блоков с тишиной в начале и конце : Нет
При вычислениях CRC использовались нулевые сэмплы : Да
Интерфейс : Встроенный Win32-интерфейс для Win NT/2000

Выходной формат : Внутренние WAV-операции
Формат сэмплов : 44.100 Гц; 16 бит; стерео

TOC извлечённого CD

Трек | Старт | Длительность | Начальный сектор | Конечный сектор
---------------------------------------------------------------------
1 | 0:00.00 | 0:23.33 | 0 | 1757
2 | 0:23.33 | 0:45.10 | 1758 | 5142
3 | 1:08.43 | 1:21.18 | 5143 | 11235
4 | 2:29.61 | 0:32.19 | 11236 | 13654
5 | 3:02.05 | 0:08.24 | 13655 | 14278
6 | 3:10.29 | 0:33.59 | 14279 | 16812
7 | 3:44.13 | 2:11.39 | 16813 | 26676
8 | 5:55.52 | 1:08.44 | 26677 | 31820
9 | 7:04.21 | 0:35.47 | 31821 | 34492
10 | 7:39.68 | 1:49.61 | 34493 | 42728
11 | 9:29.54 | 0:29.01 | 42729 | 44904
12 | 9:58.55 | 1:49.24 | 44905 | 53103
13 | 11:48.04 | 0:29.08 | 53104 | 55286
14 | 12:17.12 | 1:53.25 | 55287 | 63786
15 | 14:10.37 | 0:29.15 | 63787 | 65976
16 | 14:39.52 | 1:51.65 | 65977 | 74366
17 | 16:31.42 | 0:27.72 | 74367 | 76463
18 | 16:59.39 | 1:54.42 | 76464 | 85055
19 | 18:54.06 | 0:32.26 | 85056 | 87481
20 | 19:26.32 | 1:52.63 | 87482 | 95944
21 | 21:19.20 | 0:35.56 | 95945 | 98625
22 | 21:55.01 | 1:54.26 | 98626 | 107201
23 | 23:49.27 | 0:30.41 | 107202 | 109492
24 | 24:19.68 | 1:51.32 | 109493 | 117849
25 | 26:11.25 | 0:34.42 | 117850 | 120441
26 | 26:45.67 | 1:50.48 | 120442 | 128739
27 | 28:36.40 | 0:33.01 | 128740 | 131215
28 | 29:09.41 | 1:50.72 | 131216 | 139537
29 | 31:00.38 | 0:33.59 | 139538 | 142071
30 | 31:34.22 | 1:49.43 | 142072 | 150289
31 | 33:23.65 | 0:31.46 | 150290 | 152660
32 | 33:55.36 | 1:54.34 | 152661 | 161244
33 | 35:49.70 | 0:37.30 | 161245 | 164049
34 | 36:27.25 | 0:38.56 | 164050 | 166955
35 | 37:06.06 | 1:20.30 | 166956 | 172985
36 | 38:26.36 | 1:51.49 | 172986 | 181359
37 | 40:18.10 | 0:36.13 | 181360 | 184072
38 | 40:54.23 | 5:18.24 | 184073 | 207946
39 | 46:12.47 | 0:51.04 | 207947 | 211775
40 | 47:03.51 | 4:56.47 | 211776 | 234022
41 | 52:00.23 | 2:34.12 | 234023 | 245584
42 | 54:34.35 | 1:06.63 | 245585 | 250597
43 | 55:41.23 | 1:14.53 | 250598 | 256200

Характеристики диапазона извлечения и сообщения об ошибках

Выбранный диапазон

Имя файла C:\Хор Минского Петро-Павловского собора - Акафист Всецрарице.wav

Пиковый уровень 81.4 %
Качество диапазона 100.0 %
CRC копии E95068F2
Копирование... OK

Ошибок не произошло

AccurateRip: сводка
Трек 1 нет в базе данных
Трек 2 нет в базе данных
Трек 3 нет в базе данных
Трек 4 нет в базе данных
Трек 5 нет в базе данных
Трек 6 нет в базе данных
Трек 7 нет в базе данных
Трек 8 нет в базе данных
Трек 9 нет в базе данных
Трек 10 нет в базе данных
Трек 11 нет в базе данных
Трек 12 нет в базе данных
Трек 13 нет в базе данных
Трек 14 нет в базе данных
Трек 15 нет в базе данных
Трек 16 нет в базе данных
Трек 17 нет в базе данных
Трек 18 нет в базе данных
Трек 19 нет в базе данных
Трек 20 нет в базе данных
Трек 21 нет в базе данных
Трек 22 нет в базе данных
Трек 23 нет в базе данных
Трек 24 нет в базе данных
Трек 25 нет в базе данных
Трек 26 нет в базе данных
Трек 27 нет в базе данных
Трек 28 нет в базе данных
Трек 29 нет в базе данных
Трек 30 нет в базе данных
Трек 31 нет в базе данных
Трек 32 нет в базе данных
Трек 33 нет в базе данных
Трек 34 нет в базе данных
Трек 35 нет в базе данных
Трек 36 нет в базе данных
Трек 37 нет в базе данных
Трек 38 нет в базе данных
Трек 39 нет в базе данных
Трек 40 нет в базе данных
Трек 41 нет в базе данных
Трек 42 нет в базе данных
Трек 43 нет в базе данных
Ни одного трека нет в базе AccurateRip

Конец отчёта
Download

Войдите для скачивания торрент-файла

Как скачивать  ·   Правила трекера

[Профиль]  [ЛС] 

evilmarx

post 04-Июн-2011 11:28 (спустя 1 год 5 месяцев)

[Цитировать] 

Спасибо, мама порадуется.
 

Алексус

Стаж: 5 лет 10 месяцев

Сообщений: 2

Russia

post 06-Июл-2011 21:09 (спустя 1 месяц 2 дня)

[Цитировать] 

Огромнейшее ВАМ СПАСИБО за раздачу!
[Профиль]  [ЛС] 

vadimmus-com

post 23-Сен-2011 08:14 (спустя 2 месяца 16 дней)

[Цитировать] 

СПАСИБО!!!
 

geo902

Стаж: 4 года 7 месяцев

Сообщений: 12

Откуда: москва

Russia

post 31-Май-2013 15:54 (спустя 1 год 8 месяцев)

[Цитировать] 

Спасигосподи !!!!
[Профиль]  [ЛС] 
Показать сообщения:    
Ответить на тему

Текущее время: 25-Май 01:40

Часовой пояс: GMT + 4



Вы не можете начинать темы
Вы не можете отвечать на сообщения
Вы не можете редактировать свои сообщения
Вы не можете удалять свои сообщения
Вы не можете голосовать в опросах
Вы не можете прикреплять файлы к сообщениям
Вы не можете скачивать файлы