Loading...
Error

(Акафисты, каноны, молебны (lossless))Поёт Продромос Цервенис - Молебный канон свщмч. Харалампию чудотворцу - 2007, APE (image + .cue), lossless

Ответить на тему
Статистика раздачи
   
 
Автор Сообщение

СЕРГУЛЕТ

Стаж: 12 лет

Сообщений: 2637

Откуда: LA ROMANA

Dominicanrep

post 04-Дек-2009 22:23

[Цитировать] 

Поёт Продромос Цервенис - Молебный канон свщмч. Харалампию чудотворцу
pic
Страна: Греция
Жанр: Акафисты, каноны, молебны (lossless)
Год выпуска: 2007
Формат: APE (image + .cue)
Битрейт аудио: lossless
Продолжительность: 01:15:14
Наличие сканов: да
Трэклист:
01. Track01
02. Track02
03. Track03
04. Track04
05. Track05
06. Track06
07. Track07
08. Track08
09. Track09
10. Track10
11. Track11
12. Track12
13. Track13
14. Track14
EAC log
Exact Audio Copy V0.99 prebeta 5 from 4. May 2009

Отчёт EAC об извлечении, выполненном 3. декабря 2009, 22:11

Поёт Продромос Цервенис / Молебный канон свщмч. Харалампию чудотворцу

Дисковод: ASUS BC-1205PT Adapter: 1 ID: 0

Режим чтения : Достоверность
Использование точного потока : Да
Отключение кэша аудио : Да
Использование указателей C2 : Нет

Коррекция смещения при чтении : 667
Способность читать области Lead-in и Lead-out : Нет
Заполнение пропущенных сэмплов тишиной : Да
Удаление блоков с тишиной в начале и конце : Нет
При вычислениях CRC использовались нулевые сэмплы : Да
Интерфейс : Встроенный Win32-интерфейс для Win NT/2000

Выходной формат : Внутренние WAV-операции
Формат сэмплов : 44.100 Гц; 16 бит; стерео

TOC извлечённого CD

Трек | Старт | Длительность | Начальный сектор | Конечный сектор
---------------------------------------------------------------------
1 | 0:00.00 | 3:03.24 | 0 | 13748
2 | 3:03.24 | 3:18.19 | 13749 | 28617
3 | 6:21.43 | 2:34.72 | 28618 | 40239
4 | 8:56.40 | 5:48.50 | 40240 | 66389
5 | 14:45.15 | 2:32.22 | 66390 | 77811
6 | 17:17.37 | 6:15.68 | 77812 | 106004
7 | 23:33.30 | 5:31.15 | 106005 | 130844
8 | 29:04.45 | 8:08.06 | 130845 | 167450
9 | 37:12.51 | 8:01.21 | 167451 | 203546
10 | 45:13.72 | 7:07.57 | 203547 | 235628
11 | 52:21.54 | 5:34.31 | 235629 | 260709
12 | 57:56.10 | 2:02.04 | 260710 | 269863
13 | 59:58.14 | 6:54.35 | 269864 | 300948
14 | 66:52.49 | 8:20.60 | 300949 | 338508

Характеристики диапазона извлечения и сообщения об ошибках

Выбранный диапазон

Имя файла C:\Поёт Продромос Цервенис - Молебный канон свщмч. Харалампию чудотворцу.wav

Пиковый уровень 97.7 %
Качество диапазона 100.0 %
CRC копии 3D193363
Копирование... OK

Ошибок не произошло

AccurateRip: сводка
Трек 1 нет в базе данных
Трек 2 нет в базе данных
Трек 3 нет в базе данных
Трек 4 нет в базе данных
Трек 5 нет в базе данных
Трек 6 нет в базе данных
Трек 7 нет в базе данных
Трек 8 нет в базе данных
Трек 9 нет в базе данных
Трек 10 нет в базе данных
Трек 11 нет в базе данных
Трек 12 нет в базе данных
Трек 13 нет в базе данных
Трек 14 нет в базе данных
Ни одного трека нет в базе AccurateRip

Конец отчёта

Обложки и содержание
pic pic pic

Дополнительная информация
Поёт Продромос Цервенис
Возгласы – пресвитер Василеос

Download

Войдите на сайт, чтобы увидеть полную информацию.

Как скачивать  ·   Правила трекера

[Профиль]  [ЛС] 

vladimir@vg-comp.ru

post 25-Июн-2011 21:37 (спустя 1 год 6 месяцев)

[Цитировать] 

СЕРГУЛЕТ

"Молебный канон свщмч. Харалампию чудотворцу". - помогите , очень хочется скачать этот молебен .. а он почему-то не качается
 
Показать сообщения:    
Ответить на тему

Текущее время: 29-Янв 00:08

Часовой пояс: GMT + 4



Вы не можете начинать темы
Вы не можете отвечать на сообщения
Вы не можете редактировать свои сообщения
Вы не можете удалять свои сообщения
Вы не можете голосовать в опросах
Вы не можете прикреплять файлы к сообщениям
Вы не можете скачивать файлы