Loading...
Error

(Церковная музыка и церковные хоры (lossless)) Драгослав Павле Аксентиевич - Псалмы (13-14 век.Сербия) - 1990, FLAC (tracks), lossless

Ответить на тему
Статистика раздачи
no
   
 
Автор Сообщение

sadhu

Стаж: 8 лет

Сообщений: 55

Russia

post 27-Окт-2009 16:20

[Цитировать] 

Драгослав Павле Аксентиевич - Псалмы (13-14 век.Сербия)

pic
Страна: Сербия
Жанр: Церковная музыка и церковные хоры (lossless)
Год выпуска: 1990
Формат: FLAC (tracks)
Битрейт аудио: lossless
Продолжительность: 39:20

Трэклист:

01 Alleluja (Unknown, 13th century)
02 Lift up your heads, o gates (Unknown, 13th century)
03 Lord's steadfast love endures for ever (John Koukouzeles, 14th century)
04 Alleluia (Unknown, 14th century)
05 Praise the Lord! (Joachim Domestikos of Serbia, 14th century)
06 Kratima (Domestikos Dokeianos, 14th century)
07 (Lord) Smote many nations (Xenus Korinos, 14th century)
08 The heavens are telling the glory of God (Unknown, 13th century)
09 The rulers (of the earth)
10 My mouth is filled with the praise (Andrew Protopsaltes, 14th century)
11 Kratima (Unknown, 14th century)

Дополнительная информация:
записано в монастыре "Манасия"
исон: Владан Перишич, Минта Алексиначки, Миомир Ристич и Братислав Ристич
log
Exact Audio Copy V0.99 prebeta 5 from 4. May 2009

Отчёт EAC об извлечении, выполненном 23. октября 2009, 23:34

Dragoslav Pavle Aksentijevic / Psalms

Дисковод: TSSTcorpCDDVDW SH-S222A Adapter: 0 ID: 0

Режим чтения : Достоверность
Использование точного потока : Да
Отключение кэша аудио : Нет
Использование указателей C2 : Нет

Коррекция смещения при чтении : 6
Способность читать области Lead-in и Lead-out : Нет
Заполнение пропущенных сэмплов тишиной : Да
Удаление блоков с тишиной в начале и конце : Нет
При вычислениях CRC использовались нулевые сэмплы : Да
Интерфейс : Установленный внешний ASPI-интерфейс
Обработка зазоров : Не обнаружено, добавлено к предыдущему треку

Выходной формат : Пользовательский кодировщик
Выбранный битрейт : 768 kBit/s
Качество : Высокий
Добавление ID3-тэга : Нет
Утилита сжатия : D:\Exact Audio Copy\FLAC\FLAC.EXE
Дополнительные параметры : -8 -V -T "ARTIST=%a" -T "TITLE=%t" -T "ALBUM=%g" -T "DATE=%y" -T "TRACKNUMBER=%n" -T "GENRE=%m" -T "COMMENT=EAC FLAC -8" %s

TOC извлечённого CD

Трек | Старт | Длительность | Начальный сектор | Конечный сектор
---------------------------------------------------------------------
1 | 0:00.00 | 2:05.08 | 0 | 9382
2 | 2:05.08 | 4:02.39 | 9383 | 27571
3 | 6:07.47 | 3:41.60 | 27572 | 44206
4 | 9:49.32 | 1:47.52 | 44207 | 52283
5 | 11:37.09 | 4:11.64 | 52284 | 71172
6 | 15:48.73 | 4:03.11 | 71173 | 89408
7 | 19:52.09 | 3:17.46 | 89409 | 104229
8 | 23:09.55 | 3:26.74 | 104230 | 119753
9 | 26:36.54 | 8:20.30 | 119754 | 157283
10 | 34:57.09 | 2:33.52 | 157284 | 168810
11 | 37:30.61 | 1:50.14 | 168811 | 177074

Трек 1

Имя файла D:\01. Dragoslav Pavle Aksentijevic - Alleluja (Unknown, 13th century).wav

Пиковый уровень 100.0 %
Качество трека 100.0 %
CRC теста E27A9FC0
CRC копии E27A9FC0
Копирование... OK

Трек 2

Имя файла D:\02. Dragoslav Pavle Aksentijevic - Lift up your heads, o gates (Unknown, 13th century).wav

Пиковый уровень 100.0 %
Качество трека 100.0 %
CRC теста 98CFF6BE
CRC копии 98CFF6BE
Копирование... OK

Трек 3

Имя файла D:\03. Dragoslav Pavle Aksentijevic - Lord's steadfast love endures for ever (John Koukouzeles, 14th century).wav

Пиковый уровень 100.0 %
Качество трека 99.9 %
CRC теста 736A9616
CRC копии 736A9616
Копирование... OK

Трек 4

Имя файла D:\04. Dragoslav Pavle Aksentijevic - Alleluia (Unknown, 14th century).wav

Пиковый уровень 100.0 %
Качество трека 100.0 %
CRC теста 1B272D84
CRC копии 1B272D84
Копирование... OK

Трек 5

Имя файла D:\05. Dragoslav Pavle Aksentijevic - Praise the Lord! (Joachim Domestikos of Serbia, 14th century).wav

Пиковый уровень 100.0 %
Качество трека 100.0 %
CRC теста 49C99B3D
CRC копии 49C99B3D
Копирование... OK

Трек 6

Имя файла D:\06. Dragoslav Pavle Aksentijevic - Kratima (Domestikos Dokeianos, 14th century).wav

Пиковый уровень 100.0 %
Качество трека 100.0 %
CRC теста 64CE3288
CRC копии 64CE3288
Копирование... OK

Трек 7

Имя файла D:\07. Dragoslav Pavle Aksentijevic - (Lord) Smote many nations (Xenus Korinos, 14th century) and O house of Israel, bless the Lord (Christophoros Domestikos, 14th century).wav

Пиковый уровень 100.0 %
Качество трека 100.0 %
CRC теста 3A049D08
CRC копии 3A049D08
Копирование... OK

Трек 8

Имя файла D:\08. Dragoslav Pavle Aksentijevic - The heavens are telling the glory of God (Unknown, 13th century).wav

Пиковый уровень 100.0 %
Качество трека 100.0 %
CRC теста 781382D6
CRC копии 781382D6
Копирование... OK

Трек 9

Имя файла D:\09. Dragoslav Pavle Aksentijevic - The rulers (of the earth) take counsel together against Lord and his anointed (John Koukouzelos, 14th century) and Serve the Lord with fear (Nikephorus Ethikos, 14th century).wav

Пиковый уровень 100.0 %
Качество трека 99.9 %
CRC теста BBE10566
CRC копии BBE10566
Копирование... OK

Трек 10

Имя файла D:\10. Dragoslav Pavle Aksentijevic - My mouth is filled with the praise (Andrew Protopsaltes, 14th century).wav

Пиковый уровень 100.0 %
Качество трека 100.0 %
CRC теста 3D30B331
CRC копии 3D30B331
Копирование... OK

Трек 11

Имя файла D:\11. Dragoslav Pavle Aksentijevic - Kratima (Unknown, 14th century).wav

Пиковый уровень 100.0 %
Качество трека 100.0 %
CRC теста 2C143F09
CRC копии 2C143F09
Копирование... OK

Ошибок не произошло

Конец отчёта
Download

Войдите для скачивания торрент-файла

Как скачивать  ·   Правила трекера



Последний раз редактировалось: sadhu (2010-02-20 01:50), всего редактировалось 1 раз
[Профиль]  [ЛС] 

cr3cm8

Стаж: 7 лет 10 месяцев

Сообщений: 47

Откуда: Самый Запад России

Russia

post 29-Окт-2009 18:26 (спустя 2 дня 2 часа)

[Цитировать] 

Благодарю за альбом!


Последний раз редактировалось: cr3cm8 (2010-06-05 23:02), всего редактировалось 1 раз
[Профиль]  [ЛС] 

Manul

Стаж: 7 лет 6 месяцев

Сообщений: 155

Ussr

post 03-Ноя-2009 16:16 (спустя 4 дня)

[Цитировать] 

Спаси Господи!
А .cue нет? Sad
[Профиль]  [ЛС] 

sadhu

Стаж: 8 лет

Сообщений: 55

Russia

post 03-Ноя-2009 19:59 (спустя 3 часа)

[Цитировать] 

попробовал сделать куе для потрекового рипа не знаю правильно или нет:
cue для серии wav файлов с зазорами
REM GENRE choir
REM DATE 1990
REM DISCID A609390B
REM COMMENT "ExactAudioCopy v0.99pb5"
PERFORMER "Dragoslav Pavle Aksentijevic"
TITLE "Psalms"
FILE "01. Dragoslav Pavle Aksentijevic - Alleluja (Unknown, 13th century).wav" WAVE
TRACK 01 AUDIO
TITLE "Alleluja (Unknown, 13th century)"
PERFORMER "Dragoslav Pavle Aksentijevic"
INDEX 01 00:00:00
FILE "02. Dragoslav Pavle Aksentijevic - Lift up your heads, o gates (Unknown, 13th century).wav" WAVE
TRACK 02 AUDIO
TITLE "Lift up your heads, o gates (Unknown, 13th century)"
PERFORMER "Dragoslav Pavle Aksentijevic"
INDEX 01 00:00:00
FILE "03. Dragoslav Pavle Aksentijevic - Lord's steadfast love endures for ever (John Koukouzeles, 14th century).wav" WAVE
TRACK 03 AUDIO
TITLE "Lord's steadfast love endures for ever (John Koukouzeles, 14th century)"
PERFORMER "Dragoslav Pavle Aksentijevic"
INDEX 01 00:00:00
FILE "04. Dragoslav Pavle Aksentijevic - Alleluia (Unknown, 14th century).wav" WAVE
TRACK 04 AUDIO
TITLE "Alleluia (Unknown, 14th century)"
PERFORMER "Dragoslav Pavle Aksentijevic"
INDEX 01 00:00:00
FILE "05. Dragoslav Pavle Aksentijevic - Praise the Lord! (Joachim Domestikos of Serbia, 14th century).wav" WAVE
TRACK 05 AUDIO
TITLE "Praise the Lord! (Joachim Domestikos of Serbia, 14th century)"
PERFORMER "Dragoslav Pavle Aksentijevic"
INDEX 01 00:00:00
FILE "06. Dragoslav Pavle Aksentijevic - Kratima (Domestikos Dokeianos, 14th century).wav" WAVE
TRACK 06 AUDIO
TITLE "Kratima (Domestikos Dokeianos, 14th century)"
PERFORMER "Dragoslav Pavle Aksentijevic"
INDEX 01 00:00:00
FILE "07. Dragoslav Pavle Aksentijevic - (Lord) Smote many nations (Xenus Korinos, 14th century) and O house of Israel, bless the Lord (Christophoros Domestikos, 14th century).wav" WAVE
TRACK 07 AUDIO
TITLE "(Lord) Smote many nations (Xenus Korinos, 14th century) and O house of Israel..."
PERFORMER "Dragoslav Pavle Aksentijevic"
INDEX 01 00:00:00
FILE "08. Dragoslav Pavle Aksentijevic - The heavens are telling the glory of God (Unknown, 13th century).wav" WAVE
TRACK 08 AUDIO
TITLE "The heavens are telling the glory of God (Unknown, 13th century)"
PERFORMER "Dragoslav Pavle Aksentijevic"
INDEX 01 00:00:00
FILE "09. Dragoslav Pavle Aksentijevic - The rulers (of the earth) take counsel together against Lord and his anointed (John Koukouzelos, 14th century) and Serve the Lord with fear (Nikephorus Ethikos, 14th century).wav" WAVE
TRACK 09 AUDIO
TITLE "The rulers (of the earth) take counsel together against Lord and his anointed..."
PERFORMER "Dragoslav Pavle Aksentijevic"
INDEX 01 00:00:00
FILE "10. Dragoslav Pavle Aksentijevic - My mouth is filled with the praise (Andrew Protopsaltes, 14th century).wav" WAVE
TRACK 10 AUDIO
TITLE "My mouth is filled with the praise (Andrew Protopsaltes, 14th century)"
PERFORMER "Dragoslav Pavle Aksentijevic"
INDEX 01 00:00:00
FILE "11. Dragoslav Pavle Aksentijevic - Kratima (Unknown, 14th century).wav" WAVE
TRACK 11 AUDIO
TITLE "Kratima (Unknown, 14th century)"
PERFORMER "Dragoslav Pavle Aksentijevic"
INDEX 01 00:00:00


Последний раз редактировалось: sadhu (2009-11-03 21:46), всего редактировалось 1 раз
[Профиль]  [ЛС] 

Manul

Стаж: 7 лет 6 месяцев

Сообщений: 155

Ussr

post 03-Ноя-2009 20:49 (спустя 50 минут)

[Цитировать] 

sadhu
Нет, так не пойдет.
Ставите диск в привод, загружаете EAC.
В нем: Action -> Create CUE Sheet -> Multiple WAV Files With Gaps... (Noncompilant)
и сохраняете.
[Профиль]  [ЛС] 

sadhu

Стаж: 8 лет

Сообщений: 55

Russia

post 03-Ноя-2009 21:53 (спустя 1 час 3 минуты)

[Цитировать] 

обновил выше.
а вообще какой смысл в этом куе при потрековом рипе?
[Профиль]  [ЛС] 

Manul

Стаж: 7 лет 6 месяцев

Сообщений: 155

Ussr

post 03-Ноя-2009 22:10 (спустя 17 минут)

[Цитировать] 

sadhu
При наличии такого файла, записанный диск получается максимально близким к оригиналу. Но в Вашем рипе ещё не учтены прегапы, но это так - на любителя Smile
Спасибо!
Вот только индексы почему-то у Вас все нулевые Sad
[Профиль]  [ЛС] 

Academic Crack

Администратор

Стаж: 8 лет 2 месяца

Сообщений: 2084

Russia

post 03-Ноя-2009 22:32 (спустя 21 минута)

[Цитировать] 

Manul писал(а):

Вот только индексы почему-то у Вас все нулевые Sad
Это может означать, что на диске между треками нет зазоров. Таких дисков встречается немало. Например, вот этот такой. Я не скачивал из раздачи, у меня свой такой есть, так вот там зазоров нет:
pic
Да и на других дисках неоднократно встречал. Поэтому тут нормально все, и, скорее всего, на данном диске тоже нет зазоров. Это по F4 легко проверить.

_________________
pic
pic 100 Мбит/с, pic 100 Мбит/с.
Исправили раздачу? Пишите в личку со ссылкой на раздачу.
[Профиль]  [ЛС] 

AlexMir

post 30-Июн-2011 11:34 (спустя 1 год 7 месяцев)

[Цитировать] 

Благодарю Вас други
 

Irina Polischuk

Стаж: 10 месяцев

Сообщений: 1

Latvia

post 10-Апр-2016 01:59 (спустя 4 года 9 месяцев)

[Цитировать] 

добрый вечер,пробую скачать -не получается
[Профиль]  [ЛС] 
Показать сообщения:    
Ответить на тему

Текущее время: 28-Фев 14:00

Часовой пояс: GMT + 4



Вы не можете начинать темы
Вы не можете отвечать на сообщения
Вы не можете редактировать свои сообщения
Вы не можете удалять свои сообщения
Вы не можете голосовать в опросах
Вы не можете прикреплять файлы к сообщениям
Вы не можете скачивать файлы