Loading...
Error

(Колокольные звоны.) "Колокольные звоны Троице-Сергиевой Лавры". - 2008, APE (image + .cue), lossless

Ответить на тему
Статистика раздачи
Скачали: [ 6 ]
   
 
Автор Сообщение

СЕРГУЛЕТ

Стаж: 8 лет 3 месяца

Сообщений: 2639

Откуда: LA ROMANA

Dominicanrep

post 01-Окт-2009 21:30

[Цитировать] 

"Колокольные звоны Троице-Сергиевой Лавры".

pic
Страна: Россия. "MAXclassic & Company", по лицензии фирмы "Мелодия".
Жанр: Колокольные звоны.
Год выпуска: 2008
Формат: APE (image + .cue)
Битрейт аудио: lossless
Продолжительность: 00:59:36
Содержание
pic
EAC log
Exact Audio Copy V0.99 prebeta 5 from 4. May 2009

Отчёт EAC об извлечении, выполненном 1. октября 2009, 19:11

- / Колокольные звоны ТСЛ

Дисковод: ASUS BC-1205PT Adapter: 1 ID: 0

Режим чтения : Достоверность
Использование точного потока : Да
Отключение кэша аудио : Да
Использование указателей C2 : Нет

Коррекция смещения при чтении : 667
Способность читать области Lead-in и Lead-out : Нет
Заполнение пропущенных сэмплов тишиной : Да
Удаление блоков с тишиной в начале и конце : Нет
При вычислениях CRC использовались нулевые сэмплы : Да
Интерфейс : Встроенный Win32-интерфейс для Win NT/2000

Выходной формат : Внутренние WAV-операции
Формат сэмплов : 44.100 Гц; 16 бит; стерео

TOC извлечённого CD

Трек | Старт | Длительность | Начальный сектор | Конечный сектор
---------------------------------------------------------------------
1 | 0:00.00 | 0:55.16 | 0 | 4140
2 | 0:55.16 | 1:40.00 | 4141 | 11640
3 | 2:35.16 | 5:15.16 | 11641 | 35281
4 | 7:50.32 | 2:35.48 | 35282 | 46954
5 | 10:26.05 | 5:50.25 | 46955 | 73229
6 | 16:16.30 | 6:54.31 | 73230 | 104310
7 | 23:10.61 | 1:07.50 | 104311 | 109385
8 | 24:18.36 | 4:27.01 | 109386 | 129411
9 | 28:45.37 | 12:15.60 | 129412 | 184596
10 | 41:01.22 | 1:47.39 | 184597 | 192660
11 | 42:48.61 | 2:24.29 | 192661 | 203489
12 | 45:13.15 | 4:32.17 | 203490 | 223906
13 | 49:45.32 | 4:31.29 | 223907 | 244260
14 | 54:16.61 | 5:18.00 | 244261 | 268110

Характеристики диапазона извлечения и сообщения об ошибках

Выбранный диапазон

Имя файла C:\Колокольные звоны ТСЛ.wav

Пиковый уровень 83.1 %
Качество диапазона 100.0 %
CRC копии 6E2F1D45
Копирование... OK

Ошибок не произошло

Конец отчёта
Download

Войдите для скачивания торрент-файла

Как скачивать  ·   Правила трекера

[Профиль]  [ЛС] 

Besresen

post 19-Окт-2009 14:28 (спустя 17 дней)

[Цитировать] 

А кто-нибудь встанет на раздачу???
 

SergeBright

post 26-Мар-2010 21:50 (спустя 5 месяцев 7 дней)

[Цитировать] 

Спасибо за lossless!
 

underoath

post 22-Май-2010 23:32 (спустя 1 месяц 27 дней)

[Цитировать] 

спасибо за раздачу! pic
 

Владимир Лухов

Стаж: 6 лет 8 месяцев

Сообщений: 108

Откуда: Саратов

Russia

post 17-Окт-2010 01:20 (спустя 4 месяца 25 дней)

[Цитировать] 

Спасибо..

_________________
С уважением. Владимир.


Последний раз редактировалось: Владимир Лухов (2011-03-16 19:28), всего редактировалось 1 раз
[Профиль]  [ЛС] 

+Сергей+

Стаж: 6 лет 5 месяцев

Сообщений: 225

Откуда: Москва

Russia

post 04-Дек-2010 20:01 (спустя 1 месяц 18 дней)

[Цитировать] 

Благодарю.
[Профиль]  [ЛС] 

ко

post 12-Янв-2011 01:10 (спустя 1 месяц 7 дней)

[Цитировать] 

Спасибо!
 

halant2009

Стаж: 3 года 8 месяцев

Сообщений: 1

Russia

post 18-Сен-2013 16:04 (спустя 2 года 8 месяцев)

[Цитировать] 

спасибо Вам!

_________________
halant2009
[Профиль]  [ЛС] 

vika010288

Стаж: 7 лет 10 месяцев

Сообщений: 459

Georgia

post 01-Окт-2013 23:33 (спустя 13 дней)

[Цитировать] 

спасибо за раздачу
[Профиль]  [ЛС] 

SvetlanaSV

Стаж: 2 года 8 месяцев

Сообщений: 74

post 09-Сен-2014 13:40 (спустя 11 месяцев)

[Цитировать] 

Спасибо!!
[Профиль]  [ЛС] 
Показать сообщения:    
Ответить на тему

Текущее время: 26-Май 20:39

Часовой пояс: GMT + 4



Вы не можете начинать темы
Вы не можете отвечать на сообщения
Вы не можете редактировать свои сообщения
Вы не можете удалять свои сообщения
Вы не можете голосовать в опросах
Вы не можете прикреплять файлы к сообщениям
Вы не можете скачивать файлы