Loading...
Error

(Церковная музыка и церковные хоры (lossless).) "Покланяемся Страстем Твоим...". Утреня Великой Пятницы. (4CD). - 2006, APE (image + .cue), lossless

Ответить на тему
Статистика раздачи
   
 
Автор Сообщение

СЕРГУЛЕТ

Стаж: 10 лет

Сообщений: 2637

Откуда: LA ROMANA

Dominicanrep

post 16-Окт-2009 17:35

[Цитировать] 

"Покланяемся Страстем Твоим...". Утреня Великой Пятницы. (4CD).

pic
Страна: Россия. Издательство Московского Подворья Троице-Сергиевой Лавры.
Жанр: Церковная музыка и церковные хоры (lossless).
Год выпуска: 2006
Формат: APE (image + .cue)
Битрейт аудио: lossless
Продолжительность: 03:25:31
Содержание
pic
Дополнительная информация: Гармонизация архимандрита Матфея (Мормыля).
Мужской хор Московского Подворья Свято-Троицкой Сергиевой Лавры. Регент Владимир Горбик.
Служат: архимандрит Лонгин
иеродиакон Евсевий
Канонарх: Александр Данилов
Чтец: иеродиакон Тихон.
Запись произведена 9-12 марта 2000 года в Троицком храме МПТСЛ.
EAC log
Exact Audio Copy V0.99 prebeta 5 from 4. May 2009

Отчёт EAC об извлечении, выполненном 16. октября 2009, 9:32

Хор подворья Троице-Сергиевой Лавры / Днесь Висит на Древе CD1

Дисковод: ASUS BC-1205PT Adapter: 1 ID: 0

Режим чтения : Достоверность
Использование точного потока : Да
Отключение кэша аудио : Да
Использование указателей C2 : Нет

Коррекция смещения при чтении : 667
Способность читать области Lead-in и Lead-out : Нет
Заполнение пропущенных сэмплов тишиной : Да
Удаление блоков с тишиной в начале и конце : Нет
При вычислениях CRC использовались нулевые сэмплы : Да
Интерфейс : Встроенный Win32-интерфейс для Win NT/2000

Выходной формат : Внутренние WAV-операции
Формат сэмплов : 44.100 Гц; 16 бит; стерео

TOC извлечённого CD

Трек | Старт | Длительность | Начальный сектор | Конечный сектор
---------------------------------------------------------------------
1 | 0:00.20 | 7:31.37 | 20 | 33881
2 | 7:31.57 | 1:56.00 | 33882 | 42581
3 | 9:27.57 | 2:39.30 | 42582 | 54536
4 | 12:07.12 | 1:20.08 | 54537 | 60544
5 | 13:27.20 | 21:20.67 | 60545 | 156611
6 | 34:48.12 | 3:22.25 | 156612 | 171786
7 | 38:10.37 | 3:21.00 | 171787 | 186861
8 | 41:31.37 | 5:10.50 | 186862 | 210161
9 | 46:42.12 | 1:19.38 | 210162 | 216124
10 | 48:01.50 | 1:38.35 | 216125 | 223509
11 | 49:40.10 | 6:42.37 | 223510 | 253696
12 | 56:22.47 | 5:57.55 | 253697 | 280526
13 | 62:20.27 | 2:59.63 | 280527 | 294014
14 | 65:20.15 | 4:52.25 | 294015 | 315939
15 | 70:12.40 | 1:24.00 | 315940 | 322239
16 | 71:36.40 | 2:04.52 | 322240 | 331591

Характеристики диапазона извлечения и сообщения об ошибках

Выбранный диапазон

Имя файла C:\Хор подворья Троице-Сергиевой Лавры - Днесь Висит на Древе CD1.wav

Пиковый уровень 97.6 %
Качество диапазона 100.0 %
CRC копии 9D21526A
Копирование... OK

Ошибок не произошло

CD2.
Exact Audio Copy V0.99 prebeta 5 from 4. May 2009

Отчёт EAC об извлечении, выполненном 16. октября 2009, 9:44

Хор подворья Троице-Сергиевой Лавры / Днесь Висит на Древе CD2

Дисковод: ASUS BC-1205PT Adapter: 1 ID: 0

Режим чтения : Достоверность
Использование точного потока : Да
Отключение кэша аудио : Да
Использование указателей C2 : Нет

Коррекция смещения при чтении : 667
Способность читать области Lead-in и Lead-out : Нет
Заполнение пропущенных сэмплов тишиной : Да
Удаление блоков с тишиной в начале и конце : Нет
При вычислениях CRC использовались нулевые сэмплы : Да
Интерфейс : Встроенный Win32-интерфейс для Win NT/2000

Выходной формат : Внутренние WAV-операции
Формат сэмплов : 44.100 Гц; 16 бит; стерео

TOC извлечённого CD

Трек | Старт | Длительность | Начальный сектор | Конечный сектор
---------------------------------------------------------------------
1 | 0:00.10 | 5:20.57 | 10 | 24066
2 | 5:20.67 | 3:23.53 | 24067 | 39344
3 | 8:44.45 | 3:27.50 | 39345 | 54919
4 | 12:12.20 | 2:52.17 | 54920 | 67836
5 | 15:04.37 | 1:20.30 | 67837 | 73866
6 | 16:24.67 | 1:47.03 | 73867 | 81894
7 | 18:11.70 | 7:15.20 | 81895 | 114539
8 | 25:27.15 | 3:45.40 | 114540 | 131454
9 | 29:12.55 | 4:11.05 | 131455 | 150284
10 | 33:23.60 | 5:11.67 | 150285 | 173676
11 | 38:35.52 | 1:22.05 | 173677 | 179831
12 | 39:57.57 | 1:22.65 | 179832 | 186046
13 | 41:20.47 | 6:42.10 | 186047 | 216206
14 | 48:02.57 | 3:40.33 | 216207 | 232739
15 | 51:43.15 | 2:36.45 | 232740 | 244484
16 | 54:19.60 | 10:16.30 | 244485 | 290714
17 | 64:36.15 | 1:28.55 | 290715 | 297369
18 | 66:04.70 | 1:38.22 | 297370 | 304741

Характеристики диапазона извлечения и сообщения об ошибках

Выбранный диапазон

Имя файла C:\Хор подворья Троице-Сергиевой Лавры - Днесь Висит на Древе CD2.wav

Пиковый уровень 97.6 %
Качество диапазона 100.0 %
CRC копии 73FA9CD2
Копирование... OK

Ошибок не произошло

CD3.
Exact Audio Copy V0.99 prebeta 5 from 4. May 2009

Отчёт EAC об извлечении, выполненном 16. октября 2009, 9:56

Хор МПТСЛ / Утреня Великой Пятницы-3

Дисковод: ASUS BC-1205PT Adapter: 1 ID: 0

Режим чтения : Достоверность
Использование точного потока : Да
Отключение кэша аудио : Да
Использование указателей C2 : Нет

Коррекция смещения при чтении : 667
Способность читать области Lead-in и Lead-out : Нет
Заполнение пропущенных сэмплов тишиной : Да
Удаление блоков с тишиной в начале и конце : Нет
При вычислениях CRC использовались нулевые сэмплы : Да
Интерфейс : Встроенный Win32-интерфейс для Win NT/2000

Выходной формат : Внутренние WAV-операции
Формат сэмплов : 44.100 Гц; 16 бит; стерео

TOC извлечённого CD

Трек | Старт | Длительность | Начальный сектор | Конечный сектор
---------------------------------------------------------------------
1 | 0:00.00 | 4:01.17 | 0 | 18091
2 | 4:01.17 | 12:17.57 | 18092 | 73423
3 | 16:18.74 | 1:35.60 | 73424 | 80608
4 | 17:54.59 | 2:42.15 | 80609 | 92773
5 | 20:36.74 | 4:43.20 | 92774 | 114018
6 | 25:20.19 | 5:19.66 | 114019 | 138009
7 | 30:40.10 | 4:22.49 | 138010 | 157708
8 | 35:02.59 | 4:09.72 | 157709 | 176455
9 | 39:12.56 | 1:36.17 | 176456 | 183672
10 | 40:48.73 | 0:33.00 | 183673 | 186147
11 | 41:21.73 | 1:03.35 | 186148 | 190907
12 | 42:25.33 | 4:45.22 | 190908 | 212304
13 | 47:10.55 | 3:29.74 | 212305 | 228053
14 | 50:40.54 | 1:36.52 | 228054 | 235305

Характеристики диапазона извлечения и сообщения об ошибках

Выбранный диапазон

Имя файла C:\Хор МПТСЛ - Утреня Великой Пятницы-3.wav

Пиковый уровень 92.2 %
Качество диапазона 100.0 %
CRC копии 3DDAB365
Копирование... OK

Ошибок не произошло

CD4.
Exact Audio Copy V0.99 prebeta 5 from 4. May 2009

Отчёт EAC об извлечении, выполненном 16. октября 2009, 10:08

Мужской хор Московского Подворья Свято-Троицкой Сергиевой Лавры / Утреня Великой Пятницы CD4

Дисковод: ASUS BC-1205PT Adapter: 1 ID: 0

Режим чтения : Достоверность
Использование точного потока : Да
Отключение кэша аудио : Да
Использование указателей C2 : Нет

Коррекция смещения при чтении : 667
Способность читать области Lead-in и Lead-out : Нет
Заполнение пропущенных сэмплов тишиной : Да
Удаление блоков с тишиной в начале и конце : Нет
При вычислениях CRC использовались нулевые сэмплы : Да
Интерфейс : Встроенный Win32-интерфейс для Win NT/2000

Выходной формат : Внутренние WAV-операции
Формат сэмплов : 44.100 Гц; 16 бит; стерео

TOC извлечённого CD

Трек | Старт | Длительность | Начальный сектор | Конечный сектор
---------------------------------------------------------------------
1 | 0:00.00 | 4:07.13 | 0 | 18537
2 | 4:07.13 | 3:46.05 | 18538 | 35492
3 | 7:53.18 | 2:18.15 | 35493 | 45857
4 | 10:11.33 | 1:50.50 | 45858 | 54157
5 | 12:02.08 | 2:01.07 | 54158 | 63239
6 | 14:03.15 | 2:19.04 | 63240 | 73668
7 | 16:22.19 | 2:19.06 | 73669 | 84099
8 | 18:41.25 | 1:48.06 | 84100 | 92205
9 | 20:29.31 | 2:34.55 | 92206 | 103810
10 | 23:04.11 | 2:15.23 | 103811 | 113958
11 | 25:19.34 | 3:36.39 | 113959 | 130197
12 | 28:55.73 | 2:39.31 | 130198 | 142153
13 | 31:35.29 | 1:21.11 | 142154 | 148239
14 | 32:56.40 | 1:32.37 | 148240 | 155176
15 | 34:29.02 | 2:18.39 | 155177 | 165565
16 | 36:47.41 | 1:23.07 | 165566 | 171797
17 | 38:10.48 | 1:25.12 | 171798 | 178184
18 | 39:35.60 | 1:13.47 | 178185 | 183706
19 | 40:49.32 | 2:29.38 | 183707 | 194919
20 | 43:18.70 | 1:35.31 | 194920 | 202075
21 | 44:54.26 | 0:53.49 | 202076 | 206099
22 | 45:48.00 | 3:30.22 | 206100 | 221871
23 | 49:18.22 | 3:18.40 | 221872 | 236761

Характеристики диапазона извлечения и сообщения об ошибках

Выбранный диапазон

Имя файла C:\Мужской хор Московского Подворья Свято-Троицкой Сергиевой Лавры - Утреня Великой Пятницы CD4.wav

Пиковый уровень 82.0 %
Качество диапазона 100.0 %
CRC копии F86A4C98
Копирование... OK

Ошибок не произошло
Конец отчёта
Download

Войдите на сайт, чтобы увидеть полную информацию.

Как скачивать  ·   Правила трекера

[Профиль]  [ЛС] 

Странник1

Стаж: 9 лет

Сообщений: 2307

Russia

post 24-Сен-2011 15:26 (спустя 1 год 11 месяцев)

[Цитировать] 

Благодарю
[Профиль]  [ЛС] 

Alex Sag

Стаж: 10 лет

Сообщений: 281

Kazakhstan

post 20-Сен-2014 10:10 (спустя 2 года 11 месяцев)

[Цитировать] 

Благодарю! Спаси Господи!

_________________
Alexey
[Профиль]  [ЛС] 

В-ГС

Стаж: 5 месяцев

Сообщений: 1

post 21-Апр-2019 12:59 (спустя 4 года 7 месяцев)

[Цитировать] 

Помогите скачать, ради Христа! Благодарю.
[Профиль]  [ЛС] 
Показать сообщения:    
Ответить на тему

Текущее время: 19-Окт 22:04

Часовой пояс: GMT + 4



Вы не можете начинать темы
Вы не можете отвечать на сообщения
Вы не можете редактировать свои сообщения
Вы не можете удалять свои сообщения
Вы не можете голосовать в опросах
Вы не можете прикреплять файлы к сообщениям
Вы не можете скачивать файлы