Loading...
Error

(Церковная музыка и церковные хоры (lossless).) "Мега Савватоn". "Holy Saturday". "Великая Суббота". - 2008, APE (image + .cue), lossless

Ответить на тему
Статистика раздачи
   
 
Автор Сообщение

СЕРГУЛЕТ

Стаж: 10 лет

Сообщений: 2637

Откуда: LA ROMANA

Dominicanrep

post 11-Окт-2009 22:40

[Цитировать] 

"Мега Савватоn". "Holy Saturday". "Великая Суббота".

pic
Страна: Греция.
Жанр: Церковная музыка и церковные хоры (lossless).
Год выпуска: 2008
Формат: APE (image + .cue)
Битрейт аудио: lossless
Продолжительность: 01:14:50.
Трэклист:
1. Благообразный Иосиф… Егда снизшел еси…
Мироносицам женам…
2. Статия 1-ая
3. Статия 2-ая
4. Статия 3-я
5. Плащаницею чистою… Ужасошася лицы Ангельстии…
6. Песнь 1-ая канона по катавасии
7. Песнь 3-я канона по катавасии
8. Гроб Твой, Спасе…
9. Песнь 4-ая канона по катавасии
10. Песнь 5-ая канона по катавасии
11. Песнь 6-ая канона по катавасии
12. Кондак, икос, синаксарий
13. Песнь 7-ая канона по катавасии
14. Песнь 8-ая канона по катавасии
15. Песнь 9-ая канона по катавасии
16. Солнце скрыло лучи свои…
Дополнительная информация: Поёт братский хор монастыря Ватопед.
Содержание+Обложки
picpicpic
EAC log
Exact Audio Copy V0.99 prebeta 5 from 4. May 2009

Отчёт EAC об извлечении, выполненном 10. октября 2009, 7:09

Хор Монастыря Ватопед / Великая Суббота

Дисковод: ASUS BC-1205PT Adapter: 1 ID: 0

Режим чтения : Достоверность
Использование точного потока : Да
Отключение кэша аудио : Да
Использование указателей C2 : Нет

Коррекция смещения при чтении : 667
Способность читать области Lead-in и Lead-out : Нет
Заполнение пропущенных сэмплов тишиной : Да
Удаление блоков с тишиной в начале и конце : Нет
При вычислениях CRC использовались нулевые сэмплы : Да
Интерфейс : Встроенный Win32-интерфейс для Win NT/2000

Выходной формат : Внутренние WAV-операции
Формат сэмплов : 44.100 Гц; 16 бит; стерео

TOC извлечённого CD

Трек | Старт | Длительность | Начальный сектор | Конечный сектор
---------------------------------------------------------------------
1 | 0:00.00 | 2:46.00 | 0 | 12449
2 | 2:46.00 | 7:01.47 | 12450 | 44071
3 | 9:47.47 | 7:12.10 | 44072 | 76481
4 | 16:59.57 | 7:29.63 | 76482 | 110219
5 | 24:29.45 | 1:47.25 | 110220 | 118269
6 | 26:16.70 | 3:25.02 | 118270 | 133646
7 | 29:41.72 | 3:36.60 | 133647 | 149906
8 | 33:18.57 | 2:16.55 | 149907 | 160161
9 | 35:35.37 | 2:42.48 | 160162 | 172359
10 | 38:18.10 | 4:05.67 | 172360 | 190801
11 | 42:24.02 | 5:03.60 | 190802 | 213586
12 | 47:27.62 | 2:26.18 | 213587 | 224554
13 | 49:54.05 | 3:57.35 | 224555 | 242364
14 | 53:51.40 | 4:42.02 | 242365 | 263516
15 | 58:33.42 | 4:24.63 | 263517 | 283379
16 | 62:58.30 | 11:50.42 | 283380 | 336671

Характеристики диапазона извлечения и сообщения об ошибках

Выбранный диапазон

Имя файла C:\Хор Монастыря Ватопед - Великая Суббота.wav

Пиковый уровень 97.7 %
Качество диапазона 100.0 %
CRC копии D33628B4
Копирование... OK

Ошибок не произошло
Конец отчёта
Download

Войдите на сайт, чтобы увидеть полную информацию.

Как скачивать  ·   Правила трекера

[Профиль]  [ЛС] 
Показать сообщения:    
Ответить на тему

Текущее время: 19-Окт 21:15

Часовой пояс: GMT + 4



Вы не можете начинать темы
Вы не можете отвечать на сообщения
Вы не можете редактировать свои сообщения
Вы не можете удалять свои сообщения
Вы не можете голосовать в опросах
Вы не можете прикреплять файлы к сообщениям
Вы не можете скачивать файлы