Loading...
Error

"Прощеное воскресенье". Праздничное Патриаршее Богослужение. (1 DVD & 2 CD). [2002 г., Записи и трансляции церковных богослужений (DVD), DVD5]

Ответить на тему
Статистика раздачи
   
 
Автор Сообщение

СЕРГУЛЕТ

Стаж: 10 лет

Сообщений: 2637

Откуда: LA ROMANA

Dominicanrep

post 11-Окт-2009 19:59

[Цитировать] 

"Прощеное воскресенье". Праздничное Патриаршее Богослужение. (1 DVD & 2 CD).

pic
Год выпуска: 2002
Жанр: Записи и трансляции церковных богослужений (DVD)
Продолжительность: 01:39:37(DVD)+02:13:36(2 СD).

В фильме снимались: Вечерня и чин прощения, совершенные
Святейшим Патриархом Московским и всея Руси Алексием II
в Храме Христа Спасителя.

Описание: DVD диск
1. Благовест
2. Встреча Святейшего Патриарха Московского и всея Руси Алексия II
3. Облачение Святейшего Патриарха
4. Предначинательный псалом
5. Великая ектения
6. Стихиры на Господи, воззвах и каждение храма
7. Малый вход; Свете тихий…
8. Ис полла эти Деспота…
9. Великий прокимен: Не отврати лица Твоего…
10. Сподоби Господи…
11. Просительная ектения
12. Стихиры на стиховне
13. Ныне отпущаеши… Трисвятое
14. Великопостные тропари вечерни
15. Молитва преподобного Ефрема Сирина
16. Отпуст вечерни
17. Молитва перед началом Великого поста
18. Слово Святейшего Патриарха Московского и всея Руси Алексия II
19. Чин прощения

CD диск 1
Встреча и облачение Святейшего Патриарха Московского и всея Руси Алексия II
1. От восток солнца…
2. Царю Небесный… Богородичен догматик
3. Тон деспотин
4. Облачение Святейшего Патриарха Богородичен догматик
5. Тако да просветится…
6. Тон деспотин
Вечерня
7. Предначинательный псалом
8. Мирная ектения
9. Стихиры на Господи воззвах…
10. Слава, и ныне Богородичен
11. Свете Тихий…
12. Ис полла эти деспота… Каждение
13. Не отврати лица Твоего… Великий прокимен
14. Сподоби, Господи…
15. Просительная ектения
16. Стихиры на стиховне
17. Ныне отпущаеши…
Трисвятое
18. Великопостные тропари
19. Молитва преподобного Ефрема Сирина
20. Отпуст
21. Молитва перед началом Великого поста

CD диск 2
1. Слово Святейшего Патриарха Московского и всея Руси Алексия II
2. На реках Вавилонских…
Псалом 136-й
3. Стихиры Пасхи
4. Ирмосы Великого канона
5. Покаяния отверзи ми двери…
6. Объятия Отча… Седален Недели о блудном сыне
7. Помышляю день страшный…
8. Заключительное слово Святейшего Патриарха Московского и всея Руси Алексия II

Дополнительная информация: Хор Храма Христа Спасителя. Регент Николай Георгиевский.

Параметры CD:
Формат: FLAC (image + .cue)
Битрейт аудио: lossless

Качество: DVD5
Формат: DVD Video
Видео кодек: MPEG2
Видео: PAL 4:3 (720x576) VBR
Аудио: Audio #1: AC3, 3/2 ch, 448Kbps, Delay 0 mSec, Audio #2: AC3, 2/0 ch, 224Kbps, Delay 0 mSec

Скриншоты:
Анаморфированные скриншоты
picpicpicpic[URL=http://ipicture.ru/][img]
EAC log
Exact Audio Copy V0.99 prebeta 5 from 4. May 2009

Отчёт EAC об извлечении, выполненном 11. октября 2009, 13:01

Святейший Патриарх Московский и всея Руси Алексий II / Прощеное воскресенние

Дисковод: ASUS BC-1205PT Adapter: 1 ID: 0

Режим чтения : Достоверность
Использование точного потока : Да
Отключение кэша аудио : Да
Использование указателей C2 : Нет

Коррекция смещения при чтении : 667
Способность читать области Lead-in и Lead-out : Нет
Заполнение пропущенных сэмплов тишиной : Да
Удаление блоков с тишиной в начале и конце : Нет
При вычислениях CRC использовались нулевые сэмплы : Да
Интерфейс : Встроенный Win32-интерфейс для Win NT/2000

Выходной формат : Внутренние WAV-операции
Формат сэмплов : 44.100 Гц; 16 бит; стерео

TOC извлечённого CD

Трек | Старт | Длительность | Начальный сектор | Конечный сектор
---------------------------------------------------------------------
1 | 0:00.00 | 1:14.57 | 0 | 5606
2 | 1:14.57 | 2:30.67 | 5607 | 16923
3 | 3:45.49 | 0:41.28 | 16924 | 20026
4 | 4:27.02 | 5:26.17 | 20027 | 44493
5 | 9:53.19 | 0:39.05 | 44494 | 47423
6 | 10:32.24 | 1:04.30 | 47424 | 52253
7 | 11:36.54 | 4:04.39 | 52254 | 70592
8 | 15:41.18 | 4:38.39 | 70593 | 91481
9 | 20:19.57 | 3:45.55 | 91482 | 108411
10 | 24:05.37 | 1:57.31 | 108412 | 117217
11 | 26:02.68 | 4:09.47 | 117218 | 135939
12 | 30:12.40 | 2:40.51 | 135940 | 147990
13 | 32:53.16 | 6:14.47 | 147991 | 176087
14 | 39:07.63 | 0:45.47 | 176088 | 179509
15 | 39:53.35 | 3:31.24 | 179510 | 195358
16 | 43:24.59 | 2:01.19 | 195359 | 204452
17 | 45:26.03 | 1:23.23 | 204453 | 210700
18 | 46:49.26 | 4:01.18 | 210701 | 228793
19 | 50:50.44 | 0:51.48 | 228794 | 232666
20 | 51:42.17 | 1:10.68 | 232667 | 237984
21 | 52:53.10 | 11:51.58 | 237985 | 291367

Характеристики диапазона извлечения и сообщения об ошибках

Выбранный диапазон

Имя файла C:\Святейший Патриарх Московский и всея Руси Алексий II - Прощеное воскресенние.wav

Пиковый уровень 100.0 %
Качество диапазона 100.0 %
CRC копии 4BE1E150
Копирование... OK

Ошибок не произошло
CD2.
Exact Audio Copy V0.99 prebeta 5 from 4. May 2009

Отчёт EAC об извлечении, выполненном 11. октября 2009, 13:18

Святейший Патриарх Московский и всея Руси Алексий II / Прощеное воскресение

Дисковод: ASUS BC-1205PT Adapter: 1 ID: 0

Режим чтения : Достоверность
Использование точного потока : Да
Отключение кэша аудио : Да
Использование указателей C2 : Нет

Коррекция смещения при чтении : 667
Способность читать области Lead-in и Lead-out : Нет
Заполнение пропущенных сэмплов тишиной : Да
Удаление блоков с тишиной в начале и конце : Нет
При вычислениях CRC использовались нулевые сэмплы : Да
Интерфейс : Встроенный Win32-интерфейс для Win NT/2000

Выходной формат : Внутренние WAV-операции
Формат сэмплов : 44.100 Гц; 16 бит; стерео

TOC извлечённого CD

Трек | Старт | Длительность | Начальный сектор | Конечный сектор
---------------------------------------------------------------------
1 | 0:00.00 | 15:54.37 | 0 | 71586
2 | 15:54.37 | 13:22.64 | 71587 | 131800
3 | 29:17.26 | 5:50.01 | 131801 | 158051
4 | 35:07.27 | 11:57.52 | 158052 | 211878
5 | 47:05.04 | 9:21.52 | 211879 | 254005
6 | 56:26.56 | 3:19.45 | 254006 | 268975
7 | 59:46.26 | 8:18.24 | 268976 | 306349
8 | 68:04.50 | 0:43.25 | 306350 | 309599

Характеристики диапазона извлечения и сообщения об ошибках

Выбранный диапазон

Имя файла C:\Святейший Патриарх Московский и всея Руси Алексий II - Прощеное воскресение.wav

Пиковый уровень 99.9 %
Качество диапазона 100.0 %
CRC копии 5FF38078
Копирование... OK

Ошибок не произошло
Конец отчёта
Download

Войдите на сайт, чтобы увидеть полную информацию.

Как скачивать  ·   Правила трекера



Последний раз редактировалось: СЕРГУЛЕТ (2010-03-11 20:12), всего редактировалось 1 раз
[Профиль]  [ЛС] 

sasa

post 31-Дек-2009 21:11 (спустя 2 месяца 20 дней)

[Цитировать] 

ЈАКО ПОТРЕСНО И ПРЕЛЕПО
 

Stylos

Стаж: 9 лет 9 месяцев

Сообщений: 1

post 06-Дек-2010 14:41 (спустя 11 месяцев)

[Цитировать] 

Братья и сестры. пожалуйста, встаньте кто-нибудь на раздачу!
[Профиль]  [ЛС] 

Странник1

Стаж: 9 лет

Сообщений: 2307

Russia

post 22-Мар-2011 12:25 (спустя 3 месяца 15 дней)

[Цитировать] 

Спаси Господи!
[Профиль]  [ЛС] 

mardarij

Стаж: 9 лет 8 месяцев

Сообщений: 12

Откуда: Н Новгород

Russia

post 07-Апр-2012 13:51 (спустя 1 год)

[Цитировать] 

СПАСИ ГОСПОДИ
[Профиль]  [ЛС] 

arch_Elijah

Стаж: 7 лет 1 месяц

Сообщений: 181

Откуда: KIEV

Ukraine

post 27-Авг-2014 00:47 (спустя 2 года 4 месяца)

[Цитировать] 

Спаси, Господи.

_________________
орешек знаний твёрд...
[Профиль]  [ЛС] 
Показать сообщения:    
Ответить на тему

Текущее время: 19-Окт 21:18

Часовой пояс: GMT + 4



Вы не можете начинать темы
Вы не можете отвечать на сообщения
Вы не можете редактировать свои сообщения
Вы не можете удалять свои сообщения
Вы не можете голосовать в опросах
Вы не можете прикреплять файлы к сообщениям
Вы не можете скачивать файлы