Loading...
Error

(Церковная музыка и церковные хоры (lossless).) "Акафист Страстям Господним". Объединенный хор Свято-Успенской Киево-Печерской Лавры и КДА и Семинарии - 2004, AРЕ (image + .cue), lossless

Ответить на тему
Статистика раздачи
   
 
Автор Сообщение

СЕРГУЛЕТ

Стаж: 8 лет 7 месяцев

Сообщений: 2640

Откуда: LA ROMANA

Dominicanrep

post 07-Окт-2009 17:25

[Цитировать] 

"Акафист Страстям Господним". Объединенный хор Свято-Успенской Киево-Печерской Лавры и КДА и Семинарии.

pic
Страна: Россия. Продюсерский центр Игоря Матвиенко.
Жанр: Церковная музыка и церковные хоры (lossless).
Год выпуска: 2004
Формат: AРЕ (image + .cue)
Битрейт аудио: lossless
Продолжительность: 01:03:43
Трэклист:
1. «Аллилуиа…»
«Егда славнии ученики…» (Киевский распев)
2. «Возбранный Воеводо…»
3. Акафист
4-29. Акафист
30. Акафист
31. Прокимен «Разделиша ризы моя себе…»
32. Чин Евангелия
33. Молитва «Господи, Иисусе Христе, Сын Бога Живаго…»
34. Стихира «Днесь висит на древе…»
Дополнительная информация: Объединенный хор Свято-Успенской Киево-Печерской Лавры и Киевских Духовных Академии и Семинарии под управлением иеродиакона Кирилла (Борисевича).
EAC log
Exact Audio Copy V0.99 prebeta 5 from 4. May 2009

Отчёт EAC об извлечении, выполненном 7. октября 2009, 17:14

Хор Киево-Печерской Лавры / Акафист Страстям Господним

Дисковод: ASUS BC-1205PT Adapter: 1 ID: 0

Режим чтения : Достоверность
Использование точного потока : Да
Отключение кэша аудио : Да
Использование указателей C2 : Нет

Коррекция смещения при чтении : 667
Способность читать области Lead-in и Lead-out : Нет
Заполнение пропущенных сэмплов тишиной : Да
Удаление блоков с тишиной в начале и конце : Нет
При вычислениях CRC использовались нулевые сэмплы : Да
Интерфейс : Встроенный Win32-интерфейс для Win NT/2000

Выходной формат : Внутренние WAV-операции
Формат сэмплов : 44.100 Гц; 16 бит; стерео

TOC извлечённого CD

Трек | Старт | Длительность | Начальный сектор | Конечный сектор
---------------------------------------------------------------------
1 | 0:00.00 | 3:59.38 | 0 | 17962
2 | 3:59.38 | 2:14.63 | 17963 | 28075
3 | 6:14.26 | 2:15.29 | 28076 | 38229
4 | 8:29.55 | 1:04.45 | 38230 | 43074
5 | 9:34.25 | 2:12.20 | 43075 | 52994
6 | 11:46.45 | 1:09.36 | 52995 | 58205
7 | 12:56.06 | 2:16.32 | 58206 | 68437
8 | 15:12.38 | 0:46.54 | 68438 | 71941
9 | 15:59.17 | 2:07.36 | 71942 | 81502
10 | 18:06.53 | 0:54.14 | 81503 | 85566
11 | 19:00.67 | 2:01.50 | 85567 | 94691
12 | 21:02.42 | 0:56.15 | 94692 | 98906
13 | 21:58.57 | 1:54.29 | 98907 | 107485
14 | 23:53.11 | 0:46.28 | 107486 | 110963
15 | 24:39.39 | 2:02.44 | 110964 | 120157
16 | 26:42.08 | 0:49.70 | 120158 | 123902
17 | 27:32.03 | 2:06.49 | 123903 | 133401
18 | 29:38.52 | 0:50.74 | 133402 | 137225
19 | 30:29.51 | 1:56.29 | 137226 | 145954
20 | 32:26.05 | 0:46.63 | 145955 | 149467
21 | 33:12.68 | 1:56.27 | 149468 | 158194
22 | 35:09.20 | 0:51.38 | 158195 | 162057
23 | 36:00.58 | 1:58.59 | 162058 | 170966
24 | 37:59.42 | 0:50.00 | 170967 | 174716
25 | 38:49.42 | 2:01.34 | 174717 | 183825
26 | 40:51.01 | 1:15.23 | 183826 | 189473
27 | 42:06.24 | 1:07.29 | 189474 | 194527
28 | 43:13.53 | 1:01.47 | 194528 | 199149
29 | 44:15.25 | 2:03.65 | 199150 | 208439
30 | 46:19.15 | 1:52.36 | 208440 | 216875
31 | 48:11.51 | 2:40.28 | 216876 | 228903
32 | 50:52.04 | 6:27.50 | 228904 | 257978
33 | 57:19.54 | 2:52.41 | 257979 | 270919
34 | 60:12.20 | 3:29.01 | 270920 | 286595

Характеристики диапазона извлечения и сообщения об ошибках

Выбранный диапазон

Имя файла C:\Хор Киево-Печерской Лавры - Акафист Страстям Господним.wav

Пиковый уровень 99.9 %
Качество диапазона 100.0 %
CRC копии B79AF77C
Копирование... OK

Ошибок не произошло
Конец отчёта
Download

Войдите на сайт, чтобы увидеть полную информацию.

Как скачивать  ·   Правила трекера

[Профиль]  [ЛС] 

Manul

Стаж: 8 лет 1 месяц

Сообщений: 155

Ussr

post 07-Окт-2009 18:23 (спустя 58 минут)

[Цитировать] 

И тут ковриков нет Sad
[Профиль]  [ЛС] 

Student_M

Стаж: 7 лет 10 месяцев

Сообщений: 40

Greece

post 22-Янв-2012 20:08 (спустя 2 года 3 месяца)

[Цитировать] 

Прекрасный Акафист + хорошее исполнение!

Manul, можете коврик отсюда взять bogoglasnik.ru/load/41-1-0-339
[Профиль]  [ЛС] 

Кириченко Денис

Стаж: 5 лет 10 месяцев

Сообщений: 93

Kazakhstan

post 22-Мар-2012 15:38 (спустя 1 месяц 30 дней)

[Цитировать] 

Во славу Божию! СпасиБО!
[Профиль]  [ЛС] 

michman_k-14

Стаж: 8 лет 2 месяца

Сообщений: 2

post 10-Апр-2015 19:12 (спустя 3 года)

[Цитировать] 

Может кто подскажет как этот формат записать на диск, чтоб в магнитоле проигрывался?

_________________
Большому кораблю - большая торпеда!!!
----------------------------------------------------------------------
pic
[Профиль]  [ЛС] 
Показать сообщения:    
Ответить на тему

Текущее время: 26-Сен 06:00

Часовой пояс: GMT + 4



Вы не можете начинать темы
Вы не можете отвечать на сообщения
Вы не можете редактировать свои сообщения
Вы не можете удалять свои сообщения
Вы не можете голосовать в опросах
Вы не можете прикреплять файлы к сообщениям
Вы не можете скачивать файлы