Loading...
Error

(Церковная музыка и церковные хоры (lossless)) "Акафист Святым Мученицам Вере, Надежде и Любови, и матери их Софии". - 2004, APE (image + .cue), lossless

Ответить на тему
Статистика раздачи
Скачали: [ 6 ]
   
 
Автор Сообщение

СЕРГУЛЕТ

Стаж: 7 лет 9 месяцев

Сообщений: 2639

Откуда: LA ROMANA

Dominicanrep

post 29-Сен-2009 23:42

[Цитировать] 

"Акафист Святым Мученицам Вере, Надежде и Любови, и матери их Софии".

pic
Страна: Россия. Продюсерский центр Игоря Матвиенко.
Жанр: Церковная музыка и церковные хоры (lossless)
Год выпуска: 2004
Формат: APE (image + .cue)
Битрейт аудио: lossless
Продолжительность: 00:40:52+00:40:26
Трэклист:
диск 1
1. «Благословен Бог наш…»
2. «Царю Небесный…» (муз. П.Чеснокова, обработка А.Кулешова; глас 6)
3. «Бог Господь…» Тропарь «Мученицы Твои, Господи…» (муз. П.Чеснокова; глас 4)
4. Запевы
5. Малая ектения (Обиходный напев)
6. Кондак 1 «Избранным рабам Господа Вседержителя…» на подобен «Небесных чинов…»
7. Икос 1 — кондак 2 (напев Саровской пустыни)
8. Икос 2 — кондак 3
9. Икос 3 — кондак 4
10. Икос 4 — кондак 5
11. Икос 5 — кондак 6
12. Икос 6 — кондак 7
13. Икос 7 — кондак 8
14. Икос 8 — кондак 9

диск 2
1. Икос 9 — кондак 10
2. Икос 10 — кондак 11
3. Икос 11 — кондак 13
4. Кондак 13 «О, святыя и достохвальныя мученицы…» на подобен «Небесных чинов…»
5. Икос 1 «Ангели на небеси»
6. Кондак 1 «Избранным рабам Господа Вседержителя…»
7. Прокимен глас 4 «Всякое дыхание…»
8. Опев Евангелия
9. Чтение Евангелия
10. Малое славословие (глас 6)
11. Стихира «Вера всехвальная…» на подобен «Дал еси знамение…» (Киево-Печерской Лавры; глас 4)
12. Запевы
13. «Достойно есть…» (муз. М. Балакирева)
14. Кондак «Софии честныя…» (Греческий распев; глас 1)
15. Сугубая ектения
16. Молитва «О святыя и достохвальныя мученицы Веро, Надеждо и Любы, и доблестных дщерей мати София…»
17. Величание
18. Отпуст
EAC log
Exact Audio Copy V0.99 prebeta 5 from 4. May 2009

Отчёт EAC об извлечении, выполненном 29. сентября 2009, 17:10

Хор певчих Московских Храмов. / Акафист Св. Мученицам Вере, Надежде, Любви и Софии

Дисковод: ASUS BC-1205PT Adapter: 1 ID: 0

Режим чтения : Достоверность
Использование точного потока : Да
Отключение кэша аудио : Да
Использование указателей C2 : Нет

Коррекция смещения при чтении : 667
Способность читать области Lead-in и Lead-out : Нет
Заполнение пропущенных сэмплов тишиной : Да
Удаление блоков с тишиной в начале и конце : Нет
При вычислениях CRC использовались нулевые сэмплы : Да
Интерфейс : Встроенный Win32-интерфейс для Win NT/2000

Выходной формат : Внутренние WAV-операции
Формат сэмплов : 44.100 Гц; 16 бит; стерео

TOC извлечённого CD

Трек | Старт | Длительность | Начальный сектор | Конечный сектор
---------------------------------------------------------------------
1 | 0:00.00 | 0:30.27 | 0 | 2276
2 | 0:30.27 | 1:34.13 | 2277 | 9339
3 | 2:04.40 | 4:09.06 | 9340 | 28020
4 | 6:13.46 | 1:24.55 | 28021 | 34375
5 | 7:38.26 | 1:20.02 | 34376 | 40377
6 | 8:58.28 | 1:42.56 | 40378 | 48083
7 | 10:41.09 | 3:43.45 | 48084 | 64853
8 | 14:24.54 | 3:59.04 | 64854 | 82782
9 | 18:23.58 | 3:21.53 | 82783 | 97910
10 | 21:45.36 | 3:52.61 | 97911 | 115371
11 | 25:38.22 | 3:15.58 | 115372 | 130054
12 | 28:54.05 | 4:22.33 | 130055 | 149737
13 | 33:16.38 | 3:36.32 | 149738 | 165969
14 | 36:52.70 | 3:57.08 | 165970 | 183752

Характеристики диапазона извлечения и сообщения об ошибках

Выбранный диапазон

Имя файла C:\Users\Сергулет\Documents\Хор певчих Московских Храмов. - Акафист Св. Мученицам Вере, Надежде, Любви и Софии.wav

Пиковый уровень 98.9 %
Качество диапазона 100.0 %
CRC копии BDEE4F55
Копирование... OK

Ошибок не произошло

Конец отчёта
Диск 2
Exact Audio Copy V0.99 prebeta 5 from 4. May 2009

Отчёт EAC об извлечении, выполненном 29. сентября 2009, 18:54

Хор Певчих Московских Храмов / Акафист Св. Мученицам Вере, Надежде, Любови и Софии. 2

Дисковод: ASUS BC-1205PT Adapter: 1 ID: 0

Режим чтения : Достоверность
Использование точного потока : Да
Отключение кэша аудио : Да
Использование указателей C2 : Нет

Коррекция смещения при чтении : 667
Способность читать области Lead-in и Lead-out : Нет
Заполнение пропущенных сэмплов тишиной : Да
Удаление блоков с тишиной в начале и конце : Нет
При вычислениях CRC использовались нулевые сэмплы : Да
Интерфейс : Встроенный Win32-интерфейс для Win NT/2000

Выходной формат : Внутренние WAV-операции
Формат сэмплов : 44.100 Гц; 16 бит; стерео

TOC извлечённого CD

Трек | Старт | Длительность | Начальный сектор | Конечный сектор
---------------------------------------------------------------------
1 | 0:00.00 | 3:23.01 | 0 | 15225
2 | 3:23.01 | 3:19.27 | 15226 | 30177
3 | 6:42.28 | 7:47.73 | 30178 | 65275
4 | 14:30.26 | 1:44.70 | 65276 | 73145
5 | 16:15.21 | 3:03.45 | 73146 | 86915
6 | 19:18.66 | 1:36.53 | 86916 | 94168
7 | 20:55.44 | 2:47.52 | 94169 | 106745
8 | 23:43.21 | 0:27.37 | 106746 | 108807
9 | 24:10.58 | 1:24.06 | 108808 | 115113
10 | 25:34.64 | 1:37.59 | 115114 | 122447
11 | 27:12.48 | 1:19.18 | 122448 | 128390
12 | 28:31.66 | 1:49.02 | 128391 | 136567
13 | 30:20.68 | 1:15.17 | 136568 | 142209
14 | 31:36.10 | 0:55.22 | 142210 | 146356
15 | 32:31.32 | 2:10.16 | 146357 | 156122
16 | 34:41.48 | 2:29.12 | 156123 | 167309
17 | 37:10.60 | 1:33.11 | 167310 | 174295
18 | 38:43.71 | 1:40.31 | 174296 | 181826

Характеристики диапазона извлечения и сообщения об ошибках

Выбранный диапазон

Имя файла C:\Хор Певчих Московских Храмов - Акафист Св. Мученицам Вере, Надежде, Любови и Софии. 2.wav

Пиковый уровень 98.9 %
Качество диапазона 100.0 %
CRC копии 2CF2A433
Копирование... OK

Ошибок не произошло

Конец отчёта
Download

Войдите для скачивания торрент-файла

Как скачивать  ·   Правила трекера

[Профиль]  [ЛС] 

Manul

Стаж: 7 лет 3 месяца

Сообщений: 155

Ussr

post 30-Сен-2009 10:24 (спустя 10 часов)

[Цитировать] 

Спасибо!

Их же память ныне совершаем...
[Профиль]  [ЛС] 

Anatolem

Стаж: 7 лет 2 месяца

Сообщений: 69

Откуда: Украина, г. Макеевка

Ussr

post 01-Окт-2009 20:54 (спустя 1 день 10 часов)

[Цитировать] 

Cпаси Вас Господи!

_________________
Слава Святей, и Единосущней, и Животворящей, и Нераздельней Троице всегда, ныне и присно, и во веки веков!
[Профиль]  [ЛС] 

bsergey17

Стаж: 7 лет

Сообщений: 12

Откуда: Украина

Ukraine

post 22-Дек-2011 14:46 (спустя 2 года 2 месяца)

[Цитировать] 

Спаси Вас Господи!!
[Профиль]  [ЛС] 

vironika

Стаж: 5 лет 6 месяцев

Сообщений: 15

post 29-Дек-2011 01:45 (спустя 6 дней)

[Цитировать] 

... спасибо...
[Профиль]  [ЛС] 
Показать сообщения:    
Ответить на тему

Текущее время: 08-Дек 00:14

Часовой пояс: GMT + 4



Вы не можете начинать темы
Вы не можете отвечать на сообщения
Вы не можете редактировать свои сообщения
Вы не можете удалять свои сообщения
Вы не можете голосовать в опросах
Вы не можете прикреплять файлы к сообщениям
Вы не можете скачивать файлы