Loading...
Error

(Церковная музыка и церковные хоры (lossless).) "Радуйтеся, людие". Песнопения Святой Пасхи и Пятидесятницы. Хор СТСЛ. Регент- архимандрит Матфей (Мормыль). - 2009, APE (image + .cue), lossless

Ответить на тему
Статистика раздачи
   
 
Автор Сообщение

СЕРГУЛЕТ

Стаж: 9 лет 8 месяцев

Сообщений: 2637

Откуда: LA ROMANA

Dominicanrep

post 16-Сен-2009 14:00

[Цитировать] 

"Радуйтеся, людие". Песнопения Святой Пасхи и Пятидесятницы. Хор СТСЛ. Регент- архимандрит Матфей (Мормыль).

pic
Страна: Россия. Издательский Совет РПЦ.
Жанр: Церковная музыка и церковные хоры (lossless).
Год выпуска: 2009
Формат: APE (image + .cue)
Битрейт аудио: lossless
Продолжительность: 01:00:51
Обложки
picpicpic
EAC log
Exact Audio Copy V0.99 prebeta 5 from 4. May 2009

Отчёт EAC об извлечении, выполненном 14. сентября 2009, 10:12

Хор Троице Сергиевой Лавры / Радуйтеся, Людие

Дисковод: ASUS BC-1205PT Adapter: 1 ID: 0

Режим чтения : Достоверность
Использование точного потока : Да
Отключение кэша аудио : Да
Использование указателей C2 : Нет

Коррекция смещения при чтении : 667
Способность читать области Lead-in и Lead-out : Нет
Заполнение пропущенных сэмплов тишиной : Да
Удаление блоков с тишиной в начале и конце : Нет
При вычислениях CRC использовались нулевые сэмплы : Да
Интерфейс : Встроенный Win32-интерфейс для Win NT/2000

Выходной формат : Внутренние WAV-операции
Формат сэмплов : 44.100 Гц; 16 бит; стерео

TOC извлечённого CD

Трек | Старт | Длительность | Начальный сектор | Конечный сектор
---------------------------------------------------------------------
1 | 0:00.00 | 6:07.57 | 0 | 27581
2 | 6:07.57 | 4:26.28 | 27582 | 47559
3 | 10:34.10 | 2:32.12 | 47560 | 58971
4 | 13:06.22 | 2:55.35 | 58972 | 72131
5 | 16:01.57 | 0:45.71 | 72132 | 75577
6 | 16:47.53 | 1:45.01 | 75578 | 83453
7 | 18:32.54 | 2:05.45 | 83454 | 92873
8 | 20:38.24 | 2:03.54 | 92874 | 102152
9 | 22:42.03 | 5:28.35 | 102153 | 126787
10 | 28:10.38 | 1:46.60 | 126788 | 134797
11 | 29:57.23 | 2:29.33 | 134798 | 146005
12 | 32:26.56 | 3:01.52 | 146006 | 159632
13 | 35:28.33 | 1:03.72 | 159633 | 164429
14 | 36:32.30 | 1:51.31 | 164430 | 172785
15 | 38:23.61 | 4:45.18 | 172786 | 194178
16 | 43:09.04 | 2:30.59 | 194179 | 205487
17 | 45:39.63 | 9:47.61 | 205488 | 249573
18 | 55:27.49 | 5:22.06 | 249574 | 273729

Характеристики диапазона извлечения и сообщения об ошибках

Выбранный диапазон

Имя файла C:\Users\Сергулет\Documents\Хор Троице Сергиевой Лавры - Радуйтеся, Людие.wav

Подозрительная позиция 0:24:31
Подозрительная позиция 0:24:39

Пиковый уровень 96.6 %
Качество диапазона 99.9 %
CRC копии F6BAD67D
Копирование завершено

Были ошибки

Конец отчёта
Download

Войдите на сайт, чтобы увидеть полную информацию.

Как скачивать  ·   Правила трекера

[Профиль]  [ЛС] 

Manul

Стаж: 9 лет 2 месяца

Сообщений: 155

Ussr

post 16-Сен-2009 19:42 (спустя 5 часов)

[Цитировать] 

Вчерашняя ночь принесла скорбное известие о смерти архимандрита Матфея (Мормыля).
pic
Вечная память и вечный покой новопреставленному архимандриту Матфею!
[Профиль]  [ЛС] 

СЕРГУЛЕТ

Стаж: 9 лет 8 месяцев

Сообщений: 2637

Откуда: LA ROMANA

Dominicanrep

post 16-Сен-2009 19:47 (спустя 4 минуты)

[Цитировать] 

Да, вот сегодня выложил, и тут-же мне тоже сообщили....
ВЕЧНАЯ ПАМЯТЬ....
[Профиль]  [ЛС] 

arch_Elijah

Стаж: 6 лет 1 месяц

Сообщений: 172

Откуда: KIEV

Ukraine

post 04-Мар-2013 12:39 (спустя 3 года 5 месяцев)

[Цитировать] 

Можно получить ссылку на последнюю страницу обложки? На загружается...
"Радуйтеся, людие". Песнопения Святой Пасхи и Пятидесятницы. Хор СТСЛ. Регент- архимандрит Матфей (Мормыль).

_________________
орешек знаний твёрд...
[Профиль]  [ЛС] 

макарios

Стаж: 5 лет 2 месяца

Сообщений: 1

Ukraine

post 11-Авг-2013 01:42 (спустя 5 месяцев 6 дней)

[Цитировать] 

Веселее - занятие христианина - радоватся о присоединении отца Матфея с лики святых) да самим за собой следить, дабы жизнь была богоугодной и чтобы можно было слышать хор ангелов, которыми, вероятно, сейчас Мормыль и управляет!
Песнопения эти можно слушать просто вечно, и не надоедят! И всегда на сердце принесут радость Воскресения Христова!

_________________
Любите друг друга и Господа Бога!)
[Профиль]  [ЛС] 

stepan-frunze

Стаж: 9 лет 7 месяцев

Сообщений: 2563

Russia

post 11-Авг-2013 23:36 (спустя 21 час)

[Цитировать] 

Благодарю!
[Профиль]  [ЛС] 

mars1574

Стаж: 4 года 10 месяцев

Сообщений: 33

Russia

post 07-Окт-2017 23:01 (спустя 4 года 1 месяц)

[Цитировать] 

Благодaрю!
[Профиль]  [ЛС] 

lag48

Стаж: 9 месяцев

Сообщений: 3

Russia

post 25-Янв-2018 19:04 (спустя 3 месяца 17 дней)

[Цитировать] 

Спасибо. Пора готовиться к Пасхе.
[Профиль]  [ЛС] 
Показать сообщения:    
Ответить на тему

Текущее время: 22-Окт 08:19

Часовой пояс: GMT + 4



Вы не можете начинать темы
Вы не можете отвечать на сообщения
Вы не можете редактировать свои сообщения
Вы не можете удалять свои сообщения
Вы не можете голосовать в опросах
Вы не можете прикреплять файлы к сообщениям
Вы не можете скачивать файлы