Loading...
Error

(Церковная музыка и церковные хоры (lossless).) "Малая Вечерня с Акафистом святителю Митрофану, епископу Воронежскому". - 2008, APE (image + .cue), lossless

Ответить на тему
Статистика раздачи
Скачали: [ 5 ]
   
 
Автор Сообщение

СЕРГУЛЕТ

Стаж: 8 лет 3 месяца

Сообщений: 2639

Откуда: LA ROMANA

Dominicanrep

post 11-Сен-2009 14:46

[Цитировать] 

"Малая Вечерня с Акафистом святителю Митрофану, епископу Воронежскому".

pic
Страна: Россия.
Жанр: Церковная музыка и церковные хоры (lossless).
Год выпуска: 2008
Формат: APE (image + .cue)
Битрейт аудио: lossless
Продолжительность: 01:09:32
Трэклист:
1. Псалом 103.
2. Стихиры "На Господи воззвах" глас 8.
3. Свете Тихий.
4. Прокимен, глас 8.
5. Стихира "На стиховне"
6. Ныне отпущаеши...
7. Тропарь святителю Митрофану.
8. Акафист святителю Митрофану.
9. Прокимен и Евангелие.
10. Сугубая Ектения.
11. Молитва святителю Митрофану.
12. Отпуст.
Обложки
picpicpic
EAC log
Exact Audio Copy V0.99 prebeta 5 from 4. May 2009

Отчёт EAC об извлечении, выполненном 11. сентября 2009, 13:48

- / Малая Вечерня с Акафистом свт. Митрофану Воронежскому.

Дисковод: ASUS BC-1205PT Adapter: 1 ID: 0

Режим чтения : Достоверность
Использование точного потока : Да
Отключение кэша аудио : Да
Использование указателей C2 : Нет

Коррекция смещения при чтении : 667
Способность читать области Lead-in и Lead-out : Нет
Заполнение пропущенных сэмплов тишиной : Да
Удаление блоков с тишиной в начале и конце : Нет
При вычислениях CRC использовались нулевые сэмплы : Да
Интерфейс : Встроенный Win32-интерфейс для Win NT/2000

Выходной формат : Внутренние WAV-операции
Формат сэмплов : 44.100 Гц; 16 бит; стерео

TOC извлечённого CD

Трек | Старт | Длительность | Начальный сектор | Конечный сектор
---------------------------------------------------------------------
1 | 0:00.00 | 3:27.00 | 0 | 15524
2 | 3:27.00 | 5:20.37 | 15525 | 39561
3 | 8:47.37 | 2:07.00 | 39562 | 49086
4 | 10:54.37 | 3:04.38 | 49087 | 62924
5 | 13:59.00 | 1:17.38 | 62925 | 68737
6 | 15:16.38 | 1:48.72 | 68738 | 76909
7 | 17:05.35 | 1:15.05 | 76910 | 82539
8 | 18:20.40 | 38:01.60 | 82540 | 253674
9 | 56:22.25 | 4:50.00 | 253675 | 275424
10 | 61:12.25 | 2:20.20 | 275425 | 285944
11 | 63:32.45 | 3:14.57 | 285945 | 300551
12 | 66:47.27 | 2:43.04 | 300552 | 312780

Характеристики диапазона извлечения и сообщения об ошибках

Выбранный диапазон

Имя файла C:\Users\Сергулет\Documents\Малая Вечерня с Акафистом свт. Митрофану Воронежскому..wav

Пиковый уровень 97.7 %
Качество диапазона 99.9 %
CRC копии 33D52B77
Копирование... OK

Ошибок не произошло

Конец отчёта
Download

Войдите для скачивания торрент-файла

Как скачивать  ·   Правила трекера

[Профиль]  [ЛС] 

30100008479

Стаж: 6 лет

Сообщений: 4

Russia

post 08-Май-2011 12:09 (спустя 1 год 7 месяцев)

[Цитировать] 

Спаси Господи!
[Профиль]  [ЛС] 
Показать сообщения:    
Ответить на тему

Текущее время: 29-Май 13:38

Часовой пояс: GMT + 4



Вы не можете начинать темы
Вы не можете отвечать на сообщения
Вы не можете редактировать свои сообщения
Вы не можете удалять свои сообщения
Вы не можете голосовать в опросах
Вы не можете прикреплять файлы к сообщениям
Вы не можете скачивать файлы