Loading...
Error

(Церковная музыка и церковные хоры (lossless).) "Придите и видите". Литургия. CD2. - 2006, АРЕ (image + .cue), lossless

Ответить на тему
Статистика раздачи
Скачали: [ 9 ]
   
 
Автор Сообщение

СЕРГУЛЕТ

Стаж: 8 лет 3 месяца

Сообщений: 2639

Откуда: LA ROMANA

Dominicanrep

post 04-Сен-2009 13:28

[Цитировать] 

"Придите и видите". Литургия. CD2.

pic
Страна: Россия. Студия "Пневматикон".
Жанр: Церковная музыка и церковные хоры (lossless).
Год выпуска: 2006
Формат: АРЕ (image + .cue)
Битрейт аудио: lossless
Продолжительность: 01:16:30
Трэклист:
1. Ектения
2.Благослови душе, моя Господа...
3. Хвали душе, моя Господа...
4. Блаженны...
5. Прийдите поклонимся...
6. Тропари.
7. Трисвятое.
8. Аллилуйя
9. Ектения.
10. Херувимская Песнь.
11. Ектения.
12. Евхаристический Канон.
13. Достойно есть...
14. Хвалите имя Господне...
15. Кратимы.
16. Да исполнятся уста наша...
17. Буди имя Господне благословенно...
Дополнительная информация: Исполняют: Монашеский хор Свято-Архангельского монастыря "Ковиль" (Сербия), регент монах. Козьма.
Хор келиотов (Келия Благовещения, Святая Гора Афон), регент монах Ефрем.
EAC log
Exact Audio Copy V0.99 prebeta 5 from 4. May 2009

Отчёт EAC об извлечении, выполненном 4. сентября 2009, 13:09

Литургия / Придите и видите

Дисковод: ASUS BC-1205PT Adapter: 1 ID: 0

Режим чтения : Достоверность
Использование точного потока : Да
Отключение кэша аудио : Да
Использование указателей C2 : Нет

Коррекция смещения при чтении : 667
Способность читать области Lead-in и Lead-out : Нет
Заполнение пропущенных сэмплов тишиной : Да
Удаление блоков с тишиной в начале и конце : Нет
При вычислениях CRC использовались нулевые сэмплы : Да
Интерфейс : Встроенный Win32-интерфейс для Win NT/2000

Выходной формат : Внутренние WAV-операции
Формат сэмплов : 44.100 Гц; 16 бит; стерео

TOC извлечённого CD

Трек | Старт | Длительность | Начальный сектор | Конечный сектор
---------------------------------------------------------------------
1 | 0:00.00 | 4:22.36 | 0 | 19685
2 | 4:22.36 | 5:23.46 | 19686 | 43956
3 | 9:46.07 | 3:39.62 | 43957 | 60443
4 | 13:25.69 | 5:45.73 | 60444 | 86391
5 | 19:11.67 | 1:05.03 | 86392 | 91269
6 | 20:16.70 | 4:49.72 | 91270 | 113016
7 | 25:06.67 | 5:46.58 | 113017 | 139024
8 | 30:53.50 | 1:46.40 | 139025 | 147014
9 | 32:40.15 | 2:36.58 | 147015 | 158772
10 | 35:16.73 | 8:19.56 | 158773 | 196253
11 | 43:36.54 | 4:43.45 | 196254 | 217523
12 | 48:20.24 | 4:15.00 | 217524 | 236648
13 | 52:35.24 | 2:43.59 | 236649 | 248932
14 | 55:19.08 | 8:10.30 | 248933 | 285712
15 | 63:29.38 | 5:31.14 | 285713 | 310551
16 | 69:00.52 | 0:44.71 | 310552 | 313922
17 | 69:45.48 | 0:47.26 | 313923 | 317473

Характеристики диапазона извлечения и сообщения об ошибках

Выбранный диапазон

Имя файла C:\Users\Сергулет\Documents\Литургия - Придите и видите.wav

Пиковый уровень 100.0 %
Качество диапазона 100.0 %
CRC копии 1B6CD23F
Копирование... OK

Ошибок не произошло
Download

Войдите для скачивания торрент-файла

Как скачивать  ·   Правила трекера

[Профиль]  [ЛС] 

rithmstep

Стаж: 8 лет 3 месяца

Сообщений: 80

Moldova

post 25-Янв-2016 19:49 (спустя 6 лет 4 месяца)

[Цитировать] 

Диск 1 - (Образцы Византийского пения) Ангел Белого Города
[Профиль]  [ЛС] 

Aleksiy Novikov

Стаж: 2 года

Сообщений: 142

Russia

post 28-Сен-2016 14:44 (спустя 8 месяцев)

[Цитировать] 

Да благословит Вас Господь!

_________________
"Но когда надеемся того, чего не видим, тогда ожидаем в терпении" (Рим. 8;25)
[Профиль]  [ЛС] 

Михаил Юрин

Стаж: 2 месяца 4 дня

Сообщений: 3

Russia

post 08-Апр-2017 06:33 (спустя 6 месяцев)

[Цитировать] 

Не мог бы кто-нибудь встать на раздачу...?
[Профиль]  [ЛС] 
Показать сообщения:    
Ответить на тему

Текущее время: 23-Май 16:42

Часовой пояс: GMT + 4



Вы не можете начинать темы
Вы не можете отвечать на сообщения
Вы не можете редактировать свои сообщения
Вы не можете удалять свои сообщения
Вы не можете голосовать в опросах
Вы не можете прикреплять файлы к сообщениям
Вы не можете скачивать файлы