Loading...
Error

(Церковная музыка и церковные хоры.) "Сокровенный путь". Регент Валаамского монастыря иеродиакон Герман (Рябцев). - 1999, APE (image + .cue), lossless

Ответить на тему
Статистика раздачи
   
 
Автор Сообщение

СЕРГУЛЕТ

Стаж: 12 лет

Сообщений: 2637

Откуда: LA ROMANA

Dominicanrep

post 31-Авг-2009 17:37

[Цитировать] 

"Сокровенный путь". Регент Валаамского монастыря иеродиакон Герман (Рябцев).

pic
Страна: Россия. ООО "Продюссерский центр Игоря Матвиенко.
Жанр: Церковная музыка и церковные хоры.
Год выпуска: 1999
Формат: APE (image + .cue)
Битрейт аудио: lossless
Продолжительность: 01:00:13
Трэклист:
1. Благовест
2. Приидите поклонимся
3. Величание прпп. Сергию и Герману Валаамским
4. Объятия отча
5. Херувимская песнь «Иерихонская»
6. Стихира на целование
7. Покаянный стих (глас 4)
8. Елицы во Христа
9. Иисусова молитва
10. Тропарь 2-го антифона Великого Пятка (глас 6)
11. Подобен «Поставиша» (глас 3)
12. Стихира на Хвалитех 5-й недели Великого поста (глас 1)
13. Покаянный стих (глас 2)
14. 17-я кафизма
15. Стихира на погребение монахов (глас 6)
16. Вечная ваша память
Дополнительная информация: Путь монашеского жития и духовного подвига по своей ответственности и трудности приравнивается к крестному пути. Представленные на этом диске песнопения как бы отмечают отдельные вехи этого сокровенного пути: призвание к иночеству («Благовест»), монашеский постриг как получение ангельского образа («Обятия отча» и «Херувимская песнь»), покаяние и воздержание на пути иноческого делания («Покаянные стихи»), завершение монашеского подвига и окончание земной жизни инока (стихира на погребение и «Вечная ваша память»).
Строгое и таинственное звучание песнопений напоминает о сокровенности монашеской жизни и скрытости иноческих трудов и подвигов от постороннего взора.

Расшифровка нотации и голосоведение- Иеродиакон Герман, кроме: Иисусова молитва- расшифровка Johann von Garden, Тропарь 2-го антифона Великого Пятка- расшифровка профессора Спб консерватории Альбины Никандровны Кручининой.
Чтец 17-й кафизмы- послушник Илья Рыбаков.
Записано в Никольском скиту Валаамского монастыря в октябре- ноябре 1997 года при игумене Панкратии.
Звукорежиссер Иеродиакон Герман.
EAC log
Exact Audio Copy V0.99 prebeta 5 from 4. May 2009

Отчёт EAC об извлечении, выполненном 31. августа 2009, 15:58

Иеродиакон Герман (Рябцев) / Сокровенный путь

Дисковод: ASUS BC-1205PT Adapter: 1 ID: 0

Режим чтения : Достоверность
Использование точного потока : Да
Отключение кэша аудио : Да
Использование указателей C2 : Нет

Коррекция смещения при чтении : 667
Способность читать области Lead-in и Lead-out : Нет
Заполнение пропущенных сэмплов тишиной : Да
Удаление блоков с тишиной в начале и конце : Нет
При вычислениях CRC использовались нулевые сэмплы : Да
Интерфейс : Встроенный Win32-интерфейс для Win NT/2000

Выходной формат : Внутренние WAV-операции
Формат сэмплов : 44.100 Гц; 16 бит; стерео

TOC извлечённого CD

Трек | Старт | Длительность | Начальный сектор | Конечный сектор
---------------------------------------------------------------------
1 | 0:00.00 | 0:42.27 | 0 | 3176
2 | 0:42.27 | 1:37.06 | 3177 | 10457
3 | 2:19.33 | 1:37.06 | 10458 | 17738
4 | 3:56.39 | 3:44.16 | 17739 | 34554
5 | 7:40.55 | 10:29.16 | 34555 | 81745
6 | 18:09.71 | 4:59.28 | 81746 | 104198
7 | 23:09.24 | 2:15.23 | 104199 | 114346
8 | 25:24.47 | 4:33.27 | 114347 | 134848
9 | 29:57.74 | 0:58.37 | 134849 | 139235
10 | 30:56.36 | 2:36.32 | 139236 | 150967
11 | 33:32.68 | 2:02.51 | 150968 | 160168
12 | 35:35.44 | 3:13.44 | 160169 | 174687
13 | 38:49.13 | 3:20.04 | 174688 | 189691
14 | 42:09.17 | 13:00.72 | 189692 | 248263
15 | 55:10.14 | 2:38.06 | 248264 | 260119
16 | 57:48.20 | 2:23.28 | 260120 | 270872

Характеристики диапазона извлечения и сообщения об ошибках

Выбранный диапазон

Имя файла C:\Users\Сергулет\Documents\Иеродиакон Герман (Рябцев) - Сокровенный путь.wav

Пиковый уровень 96.5 %
Качество диапазона 100.0 %
CRC копии A69BD1BE
Копирование... OK

Ошибок не произошло

Конец отчёта
Download

Войдите на сайт, чтобы увидеть полную информацию.

Как скачивать  ·   Правила трекера



Последний раз редактировалось: СЕРГУЛЕТ (2009-08-31 18:47), всего редактировалось 1 раз
[Профиль]  [ЛС] 

Manul

Стаж: 11 лет

Сообщений: 155

Ussr

post 31-Авг-2009 18:10 (спустя 32 минуты)

[Цитировать] 

СЕРГУЛЕТ
В чьем исполнении?
Помнится, иеромонах Герман сам поет, а потом использует компьютер. Этот диск такой же?
[Профиль]  [ЛС] 

СЕРГУЛЕТ

Стаж: 12 лет

Сообщений: 2637

Откуда: LA ROMANA

Dominicanrep

post 31-Авг-2009 18:48 (спустя 38 минут)

[Цитировать] 

Manul
Ну да. И еще в доп. информации дописал.
[Профиль]  [ЛС] 

Manul

Стаж: 11 лет

Сообщений: 155

Ussr

post 31-Авг-2009 19:55 (спустя 1 час 6 минут)

[Цитировать] 

СЕРГУЛЕТ

Цитата:

Ну да.
Sad
Нравится именно монастырское пение, а вот Валаамский монастырь стал исключением
Sad
[Профиль]  [ЛС] 

Странник1

Стаж: 11 лет

Сообщений: 2307

Russia

post 18-Авг-2010 12:13 (спустя 11 месяцев)

[Цитировать] 

Спасибо!
[Профиль]  [ЛС] 

sinner7

Стаж: 10 лет

Сообщений: 242

post 13-Окт-2010 22:36 (спустя 1 месяц 26 дней)

[Цитировать] 

Благодарю Вас!
[Профиль]  [ЛС] 

КукА

Стаж: 11 лет

Сообщений: 554

Откуда: Одесса

Ukraine

post 17-Ноя-2010 22:57 (спустя 1 месяц 4 дня)

[Цитировать] 

Спаси Господи , Сергулет!
[Профиль]  [ЛС] 

Владимир Лухов

Стаж: 10 лет

Сообщений: 110

Откуда: Саратов

Russia

post 23-Ноя-2010 02:16 (спустя 5 дней)

[Цитировать] 

Спасибо
[Профиль]  [ЛС] 

afara

Стаж: 10 лет

Сообщений: 201

Moldova

post 21-Май-2011 01:54 (спустя 5 месяцев 27 дней)

[Цитировать] 

Прекрасно. спаси Господи

_________________
Господи, Ты - моё сокровище, Ты - моё счастье...
Ты - мой покой, Ты - моя жизнь вечная !
Передаю себя в волю твою.
Сам со мной живи, и Сам говори !

Отдай себя, и Он будет жить с тобою...и говорить будет с тобою...
[Профиль]  [ЛС] 

шульц54

Стаж: 7 лет 9 месяцев

Сообщений: 6

Russia

post 04-Май-2013 23:05 (спустя 1 год 11 месяцев)

[Цитировать] 

Прекрасное песнопение.Спасибо
[Профиль]  [ЛС] 

Alex Sag

Стаж: 11 лет

Сообщений: 281

Kazakhstan

post 08-Апр-2014 07:22 (спустя 11 месяцев)

[Цитировать] 

Спаси Господи! Благодарю!

_________________
Alexey
[Профиль]  [ЛС] 

0304mel

Стаж: 7 лет 9 месяцев

Сообщений: 111

Russia

post 20-Окт-2014 20:45 (спустя 6 месяцев)

[Цитировать] 

Интересно послушать, когда получиться в раздачу. Мира и радости Вам!
[Профиль]  [ЛС] 

uk9cbd

Стаж: 6 лет 11 месяцев

Сообщений: 141

Russia

post 09-Окт-2020 15:35 (спустя 5 лет 11 месяцев)

[Цитировать] 

Спаси Господи!

_________________
Мир всем...
[Профиль]  [ЛС] 

zoranzivojinovic

Стаж: 2 года 9 месяцев

Сообщений: 63

Australia

post 26-Ноя-2020 19:21 (спустя 1 месяц 17 дней)

[Цитировать] 

Благодарю за чудесные раздачи! Прекрасное песнопение.
[Профиль]  [ЛС] 
Показать сообщения:    
Ответить на тему

Текущее время: 01-Мар 08:14

Часовой пояс: GMT + 4



Вы не можете начинать темы
Вы не можете отвечать на сообщения
Вы не можете редактировать свои сообщения
Вы не можете удалять свои сообщения
Вы не можете голосовать в опросах
Вы не можете прикреплять файлы к сообщениям
Вы не можете скачивать файлы