Loading...
Error

(Песнопения знаменного распева) Знаменные песнопения Древней Руси. Старопоморская наонная традиция (20+2 CD) - 2004-2005, MP3, 320 kbps

Ответить на тему
Статистика раздачи
   
 
Автор Сообщение

Petrorin

Стаж: 3 года 8 месяцев

Сообщений: 32

post 06-Дек-2020 10:30

[Цитировать] 

С. Пичугин / Знаменные песнопения Древней Руси. Старопоморская наонная традиция (20+2 CD)

pic
Жанр: Песнопения знаменного распева
Страна: Латвия-Россия
Издательство: Светлояр (Рига)
Год выпуска: 2004-2005
Формат: MP3
Битрейт аудио: 320 kbps
Продолжительность: 22 CD, 21:56:57
CD 01 "Основы знаменной системы" (Часть I. Раздел 1 «Пособия...») - 00:46:20
pic
Треклист:
01. Урок 4 - Горка
02. Урок 5 - Упр. 1, п. 1-7
03. Урок 5 - Упр. 2, п. 1-9
04. Урок 5 - Упр. 3, п. 1-15
05. Урок 5 - Упр. 4, п. 1-9
06. Урок 5 - Упр. 5, п. 1-9
07. Урок 5 - Упр. 6, п. 1-9
08. Урок 5 - Упр. 7, п. 1-15
09. Урок 5 - Упр. 8, п. 1-9
10. Урок 5 - Упр. 9, п. 1-9
11. Урок 5 - Упр. 10, п. 1-9
12. Урок 5 - Упр. 11, п. 1-2
13. Урок 6 - Упр. 1
14. Урок 6 - Упр. 2-14
15. Урок 7 - Пункты 1-7
16. Урок 10 - Приидите поклонимся
17. Урок 10 - Боже заступник мой еси
18. Урок 10 - Свят Господь Бог наш
19. Урок 10 - Заутра услыши глас мой
20. Урок 10 - Стопы моя направи
21. Урок 10 - Да исполнятся уста моя
22. Урок 10 - Господи сил, с нами буди
23. Урок 12 - Бог Господь
24. Урок 12 - Плавающаго во молве
25. Урок 12 - Отверзу уста моя
26. Урок 13 - Ангельский собор
27. Урок 13 - Аллилуйя
28. Урок 13 - Боже
29. Урок 14 - Господи, возвах
30. Урок 14 - Гласом моим к Господу помолюся
31. Урок 14 - В смиренной мудрости
32. Урок 14 - Никтоже притекая к Тебе
33. Урок 15 - Величаем Тя
34. Урок 16 - Хвалите имя Господне
35. Урок 16 - Хвалите раби Господа
36. Урок 16 - Исповедайтеся Господеви
37. Урок 17 - Господи, возвах к Тебе
38. Урок 17 - Спаси мя, Господи
Логи проверки качества
Лог fooCDtect
[pre]
fooCDtect - foobar2000 + auCDtect, baralgin.

auCDtect: CD records authenticity detector, version 0.8.2
Copyright (c) 2004 Oleg Berngardt. All rights reserved.
Copyright (c) 2004 Alexander Djourik. All rights reserved.

mode: 0

===========================================
Track: С.Пичугин - Основы знаменной системы

Processing file: [С.Пичугин - Основы знаменной системы.aucdtect]
Detected average hi-boundary frequency: 2.027149e+004 Hz
Detected average lo-boundary frequency: 1.303462e+004 Hz
Detected average hi-cut frequency: 1.995129e+004 Hz
Detected average lo-cut frequency: 1.541643e+004 Hz
Maximum probablis boundary frequency: 2.189100e+004 Hz
Coefficient of nonlinearity of a phase: 4.444754e-002
First order smothness: 4.686048e-001
Second order smothness: 7.617043e-001

------------------------------------------------------------
This track looks like MPEG with probability 100%

===========================================[/pre]
Лог Dynamic Range Meter
[pre]
foobar2000 1.5.5 / Dynamic Range Meter 1.1.1
log date: 2020-11-30 15:41:04

--------------------------------------------------------------------------------
Statistics for: ?-Основы знаменной системы
Number of samples: 122571540
Duration: 46:19
--------------------------------------------------------------------------------

Left Right

Peak Value: -0.49 dB --- -0.49 dB
Avg RMS: -11.34 dB --- -11.34 dB
DR channel: 7.59 dB --- 7.59 dB
--------------------------------------------------------------------------------

Official DR Value: DR8

Samplerate: 44100 Hz
Channels: 2
Bits per sample: 16
Bitrate: 341 kbps
Codec: FLAC
================================================================================[/pre]
fooCDtect pic
DR Meter pic
Spectrogram auCDtect TM pic
CD 02 "Осьмогласие и столповой распев (гласы 1-4)" (Часть I. Раздел 2 «Пособия...») - 00:56:50
pic
Треклист:
01. Урок 2 - Всяко дыхание (малым распевом)
02. Урок 2 - То же (путевым распевом)
03. Урок 2 - То же (демественным распевом)
04. Урок 2 - То же (большим распевом)
05. Урок 4 - Глас 1. Приидите пиво пиемо ново
06. Урок 4 - Глас 1. Аз же рече пророк
07. Урок 4 - Глас 1. Во горы твоих
08. Урок 5 - Глас 1. Утверди, Господи
09. Урок 5 - Глас 1. Несочетанено Чистая
10. Урок 5 - Глас 1. Явлеися во купине
11. Урок 6 - Глас 1. Чюдо превелие
12. Урок 6 - Глас 1. Преблагословена еси
13. Урок 6 - Глас 1. Камени знаменану
14. Урок 6 - Глас 1. Хранит Господь
15. Урок 8 - Глас 2. Во гласех ангельских
16. Урок 8 - Глас 2. О подобии злате
17. Урок 9 - Глас 2. Тебе распеншася
18. Урок 9 - Глас 2. Всяко дыхание
19. Урок 10 - Глас 2. Глагол мучителев
20. Урок 10 - Глас 2. Грозд всезрелый
21. Урок 11 - Глас 2. Херувимом подобящеся
22. Урок 11 - Глас 2. Недоумеет всяк язык
23. Урок 12 - Глас 2. Величия Твоя
24. Урок 12 - Глас 2. Петре верховный учениче
25. Урок 13 - Глас 3. Днесь спасение миру
26. Урок 13 - Глас 3. Достойно есть
27. Урок 14 - Глас 4. Разверзе утробу
28. Урок 14 - Глас 4. Явишася источеницы
29. Урок 15 - Глас 4. На кресте Тя виде
30. Урок 16 - Глас 4. На высоту возведо
31. Урок 16 - Глас 4. Правило вере
Логи проверки качества
Лог fooCDtect
[pre]
fooCDtect - foobar2000 + auCDtect, baralgin.

auCDtect: CD records authenticity detector, version 0.8.2
Copyright (c) 2004 Oleg Berngardt. All rights reserved.
Copyright (c) 2004 Alexander Djourik. All rights reserved.

mode: 0

===========================================
Track: С.Пичугин - Осьмогласие и столповой распев (гласы 1-4)

Processing file: [С.Пичугин - Осьмогласие и столповой распев (гласы 1-4).aucdtect]
Detected average hi-boundary frequency: 2.019511e+004 Hz
Detected average lo-boundary frequency: 1.351412e+004 Hz
Detected average hi-cut frequency: 1.967885e+004 Hz
Detected average lo-cut frequency: 1.465626e+004 Hz
Maximum probablis boundary frequency: 2.189100e+004 Hz
Coefficient of nonlinearity of a phase: 4.831341e-002
First order smothness: 4.735853e-001
Second order smothness: 7.458246e-001

------------------------------------------------------------
This track looks like MPEG with probability 99%

===========================================[/pre]
Лог Dynamic Range Meter
[pre]
foobar2000 1.5.5 / Dynamic Range Meter 1.1.1
log date: 2020-11-30 15:56:02

--------------------------------------------------------------------------------
Statistics for: ?-Осьмогласие и столповой распев (гласы 1-4)
Number of samples: 150332196
Duration: 56:49
--------------------------------------------------------------------------------

Left Right

Peak Value: -0.50 dB --- -0.50 dB
Avg RMS: -11.26 dB --- -11.26 dB
DR channel: 8.39 dB --- 8.39 dB
--------------------------------------------------------------------------------

Official DR Value: DR8

Samplerate: 44100 Hz
Channels: 2
Bits per sample: 16
Bitrate: 356 kbps
Codec: FLAC
================================================================================[/pre]
fooCDtect pic
DR Meter pic
Spectrogram auCDtect TM pic
CD 03 "Осьмогласие и столповой распев (гласы 5-8)" (Часть I. Раздел 2 «Пособия...») - 00:57:38
pic
Треклист:
01. Урок 17 - Глас 5. Из Эдема изыде
02. Урок 17 - Глас 5. Святому Духу богословяще
03. Урок 18 - Глас 5. О премудрых Твоих судеб
04. Урок 19 - Глас 6. Удивися Твой разум
05. Урок 19 - Глас 6. Согрешихом и беззаконновахом
06. Урок 20 - Глас 6. К Тебе утреннюю
07. Урок 20 - Глас 6. В беззаконии рук своих
08. Урок 20 - Глас 6. Духа Святаго благодать
09. Урок 21 - Глас 6. Приидите, иночествующих множества
10. Урок 21 - Глас 6. Приидите, цари
11. Урок 22 - Глас 7. Днесь спасение миру
12. Урок 22 - Глас 7. Под кровом Твоим
13. Урок 23 - Глас 8. Вечернюю песнь
14. Урок 24 - Глас 8. Юница Нескверная
15. Урок 25 - Глас 8. В вышних сниде, Милостиве
16. Урок 25 - Глас 8. Приидете, вси вернии
17. Урок 25 - Глас 8. Свете Тихий (на 8 гласов)
Логи проверки качества
Лог fooCDtect
[pre]
fooCDtect - foobar2000 + auCDtect, baralgin.

auCDtect: CD records authenticity detector, version 0.8.2
Copyright (c) 2004 Oleg Berngardt. All rights reserved.
Copyright (c) 2004 Alexander Djourik. All rights reserved.

mode: 0

===========================================
Track: С.Пичугин - Осьмогласие и столповой распев (гласы 5-8)

Processing file: [С.Пичугин - Осьмогласие и столповой распев (гласы 5-8).aucdtect]
Detected average hi-boundary frequency: 2.025311e+004 Hz
Detected average lo-boundary frequency: 1.343179e+004 Hz
Detected average hi-cut frequency: 2.025855e+004 Hz
Detected average lo-cut frequency: 1.257958e+004 Hz
Maximum probablis boundary frequency: 2.189100e+004 Hz
Coefficient of nonlinearity of a phase: 1.068175e-001
First order smothness: 4.058033e-001
Second order smothness: 7.419130e-001

------------------------------------------------------------
This track looks like MPEG with probability 80%

===========================================[/pre]
Лог Dynamic Range Meter
[pre]
foobar2000 1.5.5 / Dynamic Range Meter 1.1.1
log date: 2020-11-30 16:08:56

--------------------------------------------------------------------------------
Statistics for: ?-Осьмогласие и столповой распев (гласы 5-8)
Number of samples: 152573652
Duration: 57:40
--------------------------------------------------------------------------------

Left Right

Peak Value: -0.03 dB --- -0.03 dB
Avg RMS: -13.57 dB --- -13.57 dB
DR channel: 10.70 dB --- 10.70 dB
--------------------------------------------------------------------------------

Official DR Value: DR11

Samplerate: 44100 Hz
Channels: 2
Bits per sample: 16
Bitrate: 334 kbps
Codec: FLAC
================================================================================[/pre]
fooCDtect pic
DR Meter pic
Spectrogram auCDtect TM pic
CD 04.1 "Самогласны (Пение на глас)" (Часть II. Раздел 2 «Пособия...») - 00:38:14
pic
Треклист:
01. Урок 1 - Говорка - Воскресение Христово
02. Урок 7 - Глас 1 - Стихера воскресна приемная
03. Урок 7 - То же, напевка
04. Урок 7 - Глас 1 - Слава. И ныне. Всемирную славу
05. Урок 8 - Глас 2 - Стихера воскресна приемная
06. Урок 8 - То же, напевка
07. Урок 8 - Глас 2 - Слава. И ныне. Прейде сень законная
08. Урок 9 - Глас 3 - Стихера воскресна приемная
09. Урок 9 - То же, напевка
10. Урок 9 - Глас 3 - Слава. И ныне. Како недивимся
11. Урок 10 - Глас 4 - Стихера воскресна приемная
12. Урок 10 - То же, напевка
13. Урок 10 - Глас 4 - Слава. И ныне. Иже Тебе ради богоотец
14. Урок 11 - Глас 5 - Стихера воскресна приемная
15. Урок 11 - То же, напевка
16. Урок 11 - Глас 5 - Слава. И ныне. В Чермнем мори
17. Урок 12 - Глас 6 - Стихера воскресна приемная
18. Урок 12 - То же, напевка
19. Урок 12 - Глас 6 - Слава. И ныне. Кто Тебе не блажит
20. Урок 13 - Глас 7 - Стихера воскресна приемная
21. Урок 13 - То же, напевка
22. Урок 13 - Глас 7 - Слава. И ныне. Мати убо
23. Урок 14 - Глас 8 - Стихера воскресна приемная
24. Урок 14 - То же, напевка
25. Урок 14 - Глас 8 - Слава. И ныне. Царь небесный
Логи проверки качества
Лог fooCDtect
[pre]
fooCDtect - foobar2000 + auCDtect, baralgin.

auCDtect: CD records authenticity detector, version 0.8.2
Copyright (c) 2004 Oleg Berngardt. All rights reserved.
Copyright (c) 2004 Alexander Djourik. All rights reserved.

mode: 0

===========================================
Track: С.Пичугин - Самогласны

Processing file: [С.Пичугин - Самогласны.aucdtect]
Detected average hi-boundary frequency: 2.176115e+004 Hz
Detected average lo-boundary frequency: 1.282284e+004 Hz
Detected average hi-cut frequency: 2.198989e+004 Hz
Detected average lo-cut frequency: 2.197110e+004 Hz
Maximum probablis boundary frequency: 2.189100e+004 Hz
Coefficient of nonlinearity of a phase: 8.177801e-001
First order smothness: 3.556446e-001
Second order smothness: 9.987042e-001

------------------------------------------------------------
Could not qualify the source of this track.

===========================================[/pre]
Лог Dynamic Range Meter
[pre]
foobar2000 1.5.5 / Dynamic Range Meter 1.1.1
log date: 2020-11-30 16:23:47

--------------------------------------------------------------------------------
Statistics for: ?-Самогласны
Number of samples: 101237136
Duration: 38:16
--------------------------------------------------------------------------------

Left Right

Peak Value: 0.00 dB --- 0.00 dB
Avg RMS: -14.14 dB --- -14.14 dB
DR channel: 11.58 dB --- 11.58 dB
--------------------------------------------------------------------------------

Official DR Value: DR12

Samplerate: 44100 Hz
Channels: 2
Bits per sample: 16
Bitrate: 366 kbps
Codec: FLAC
================================================================================[/pre]
fooCDtect pic
DR Meter pic
Spectrogram auCDtect TM pic
CD 04.2 "Подобны (Пение на подобен)" (Часть II. Раздел 3 «Пособия...») - 01:05:26
pic
Треклист:
01. Урок 2 - Глас 1 - Небесным чином радование
02. Урок 2 - То же, напевка
03. Урок 2 - Глас 1 - Святейшая святых
04. Урок 3 - Глас 1 - Прехвальнии мученицы
05. Урок 3 - То же, напевка
06. Урок 3 - Глас 1 - Нетленно рождьши Бога
07. Урок 4 - Глас 2 - Доме Евфрафов
08. Урок 4 - То же, напевка
09. Урок 4 - Глас 2 - Радуйся, Иоакиме и Анна
10. Урок 5 - Глас 2 - Егда от древа
11. Урок 5 - То же, напевка
12. Урок 5 - Глас 2 - Всем скорбящим радость
13. Урок 6 - Глас 3 - Велия креста Твоего
14. Урок 6 - Глас 3 - Ставлю Крест Твой честный
15. Урок 7 - Глас 4 - Яко добля в мученицех
16. Урок 7 - То же, напевка
17. Урок 7 - Глас 4 - Ангельстии чинове
18. Урок 8 - Глас 4 - Дал еси знамение
19. Урок 8 - То же, напевка
20. Урок 8 - Глас 4 - Согреших к Тебе
21. Урок 9 - Глас 4 - Хотех слезами омыти
22. Урок 9 - Глас 4 - Кто обуреваем
23. Урок 10 - Глас 4 - Иже Званный свыше
24. Урок 10 - То же, напевка
25. Урок 10 - Глас 4 - Иже благочестно поклоняющихся
26. Урок 11 - Глас 5 - Радуйся, Живоносный Кресте
27. Урок 11 - То же, напевка
28. Урок 11 - Глас 5 - Престол херувимский воистину
29. Урок 12 - Глас 6 - Все возложиша на небесех
30. Урок 12 - То же, напевка
31. Урок 12 - Глас 6 - Яко рождьши Слово
32. Урок 13 - Глас 6 - В третий день воскресл еси
33. Урок 13 - То же, напевка
34. Урок 13 - Глас 6 - Ангельския силы Христе
35. Урок 14 - Глас 7 - Не к тому возбраняеми есмы
36. Урок 14 - Глас 7 - Да человека Бога соделаеши
37. Урок 15 - Глас 8 - О преславное чюдо
38. Урок 15 - То же, напевка
39. Урок 15 - Глас 8 - Тебе верным покров показа
40. Урок 16 - Глас 8 - Что вас наречем, святии
41. Урок 16 - Глас 8 - Уязвляем есть окаянный
42. Урок 17 - Глас 8 - Господи аще и на судищи
43. Урок 17 - Глас 8 - Явистеся купно
Логи проверки качества
Лог fooCDtect
[pre]
fooCDtect - foobar2000 + auCDtect, baralgin.

auCDtect: CD records authenticity detector, version 0.8.2
Copyright (c) 2004 Oleg Berngardt. All rights reserved.
Copyright (c) 2004 Alexander Djourik. All rights reserved.

mode: 0

===========================================
Track: С.Пичугин - Подобны

Processing file: [С.Пичугин - Подобны.aucdtect]
Detected average hi-boundary frequency: 2.166441e+004 Hz
Detected average lo-boundary frequency: 1.205156e+004 Hz
Detected average hi-cut frequency: 2.198996e+004 Hz
Detected average lo-cut frequency: 2.198033e+004 Hz
Maximum probablis boundary frequency: 2.189100e+004 Hz
Coefficient of nonlinearity of a phase: 4.574259e-001
First order smothness: 3.581570e-001
Second order smothness: 9.991244e-001

------------------------------------------------------------
Could not qualify the source of this track.

===========================================[/pre]
Лог Dynamic Range Meter
[pre]
foobar2000 1.5.5 / Dynamic Range Meter 1.1.1
log date: 2020-11-30 16:37:28

--------------------------------------------------------------------------------
Statistics for: ?-Подобны
Number of samples: 173173056
Duration: 1:05:27
--------------------------------------------------------------------------------

Left Right

Peak Value: 0.00 dB --- 0.00 dB
Avg RMS: -15.09 dB --- -15.09 dB
DR channel: 11.92 dB --- 11.92 dB
--------------------------------------------------------------------------------

Official DR Value: DR12

Samplerate: 44100 Hz
Channels: 2
Bits per sample: 16
Bitrate: 354 kbps
Codec: FLAC
================================================================================[/pre]
fooCDtect pic
DR Meter pic
Spectrogram auCDtect TM pic
CD 05 "Попевки (1-8 гласы)" (Приложение 2: Справочник основных попевок столпового распева «Пособия...») - 00:45:35
pic
Треклист:
01. Приложение 2 - Попевки. Глас 1
02. Приложение 2 - Попевки. Глас 2
03. Приложение 2 - Попевки. Глас 3
04. Приложение 2 - Попевки. Глас 4
05. Приложение 2 - Попевки. Глас 5
06. Приложение 2 - Попевки. Глас 6
07. Приложение 2 - Попевки. Глас 7
08. Приложение 2 - Попевки. Глас 8
Логи проверки качества
Лог fooCDtect
[pre]
fooCDtect - foobar2000 + auCDtect, baralgin.

auCDtect: CD records authenticity detector, version 0.8.2
Copyright (c) 2004 Oleg Berngardt. All rights reserved.
Copyright (c) 2004 Alexander Djourik. All rights reserved.

mode: 0

===========================================
Track: С.Пичугин - Попевки (гласы 1-8)

Processing file: [С.Пичугин - Попевки (гласы 1-8).aucdtect]
Detected average hi-boundary frequency: 2.135939e+004 Hz
Detected average lo-boundary frequency: 1.088967e+004 Hz
Detected average hi-cut frequency: 2.190777e+004 Hz
Detected average lo-cut frequency: 2.195480e+004 Hz
Maximum probablis boundary frequency: 2.189100e+004 Hz
Coefficient of nonlinearity of a phase: 6.133856e-001
First order smothness: 3.941256e-001
Second order smothness: 9.504584e-001

------------------------------------------------------------
This track looks like CDDA with probability 62%

===========================================[/pre]
Лог Dynamic Range Meter
[pre]
foobar2000 1.5.5 / Dynamic Range Meter 1.1.1
log date: 2020-11-30 16:46:16

--------------------------------------------------------------------------------
Statistics for: ?-Попевки (гласы 1-8)
Number of samples: 120709932
Duration: 45:37
--------------------------------------------------------------------------------

Left Right

Peak Value: 0.00 dB --- 0.00 dB
Avg RMS: -16.29 dB --- -16.29 dB
DR channel: 12.20 dB --- 12.20 dB
--------------------------------------------------------------------------------

Official DR Value: DR12

Samplerate: 44100 Hz
Channels: 2
Bits per sample: 16
Bitrate: 308 kbps
Codec: FLAC
================================================================================[/pre]
fooCDtect pic
DR Meter pic
Spectrogram auCDtect TM pic
CD 06 "Погласицы" (Часть II. Раздел 1 «Пособия...») - 01:11:49
pic
Треклист:
01. Урок 3 - За молитв... Царю небесный
02. Урок 3 - Отче наш. Приидите поклонимся
03. Урок 3 - Пресвятая Госпоже Богородице
04. Урок 3 - Прокимен
05. Урок 3 - Помилуй мя, Боже
06. Урок 3 - Песнь 3-я
07. Урок 4 - От Бытия чтение
08. Урок 4 - От пророчества Иезекилева чтение
09. Урок 4 - От Притчей чтение
10. Урок 5 - К филиписиом
11. Урок 5 - К евреом
12. Урок 6 - От Луки Святаго Евангелия чтение
13. Урок 6 - От Луки Святаго Евангелия чтение
14. Урок 7 - Слава в вышних Богу
15. Урок 7 - Псалом 3
16. Урок 7 - Слава. И ныне. Аллилуйя
17. Урок 7 - Псалом 97
18. Урок 8 - Слава. Откуду начну плакати
19. Урок 8 - Достойно из Едема
20. Урок 9 - Блажен муж. Слава. И ныне. Покой, Господи
21. Урок 9 - Вскую шаташеся языцы
22. Урок 10 - Месяца септемврия, в 8-й день
23. Урок 10 - Месяца ноября, в 21-й день
24. Урок 11 - Месяца августа, в 15-й день
25. Урок 11 - Месяца ноемврия, в 21-й день
26. Урок 12 - Поучение в неделю о мытаре и фарисее
27. Урок 12 - Поучение в неделю о блудном сыне
28. Приложение: Пример 1 - Днесь раждается от Девицы
29. Приложение: Пример 2 - Деяния святых апостол
30. Приложение: Пример 3 - В неделю двадесят пятую
31. Приложение: Пример 4 - Иже во святых отца нашего
32. Приложение: Пример 5 - Преподобнаго и богоноснаго
33. Приложение: Пример 6 - В неделю мясопустную
Логи проверки качества
Лог fooCDtect
[pre]
fooCDtect - foobar2000 + auCDtect, baralgin.

auCDtect: CD records authenticity detector, version 0.8.2
Copyright (c) 2004 Oleg Berngardt. All rights reserved.
Copyright (c) 2004 Alexander Djourik. All rights reserved.

mode: 0

===========================================
Track: С.Пичугин - Погласицы чтения

Processing file: [С.Пичугин - Погласицы чтения.aucdtect]
Detected average hi-boundary frequency: 2.187095e+004 Hz
Detected average lo-boundary frequency: 1.634637e+004 Hz
Detected average hi-cut frequency: 2.198549e+004 Hz
Detected average lo-cut frequency: 2.196240e+004 Hz
Maximum probablis boundary frequency: 2.189100e+004 Hz
Coefficient of nonlinearity of a phase: 2.685208e-001
First order smothness: 5.220850e-001
Second order smothness: 9.944168e-001

------------------------------------------------------------
Could not qualify the source of this track.

===========================================[/pre]
Лог Dynamic Range Meter
[pre]
foobar2000 1.5.5 / Dynamic Range Meter 1.1.1
log date: 2020-11-30 16:55:02

--------------------------------------------------------------------------------
Statistics for: ?-Погласицы чтения
Number of samples: 190095108
Duration: 1:11:51
--------------------------------------------------------------------------------

Left Right

Peak Value: 0.00 dB --- 0.00 dB
Avg RMS: -13.92 dB --- -13.92 dB
DR channel: 11.83 dB --- 11.83 dB
--------------------------------------------------------------------------------

Official DR Value: DR12

Samplerate: 44100 Hz
Channels: 2
Bits per sample: 16
Bitrate: 347 kbps
Codec: FLAC
================================================================================[/pre]
fooCDtect pic
DR Meter pic
Spectrogram auCDtect TM pic
CD 07 "Песнопения Обихода, часть 1" - 01:07:19
pic
Треклист:
Вечерня
01. Приидите поклонимся
02. Благослови, душе моя, Господа
03. Кафизма 1-я - Блажен муж
04. Господи, возвах (глас 1)
05. Господи, возвах (глас 2)
06. Господи, возвах (глас 3)
07. Господи, возвах (глас 4)
08. Господи, возвах (глас 5)
09. Господи, возвах (глас 6)
10. Господи, возвах (глас 7)
11. Господи, возвах (глас 8)
12. Свете Тихий
13. Прокимны на все дни недели
Утреня (начало)
14. ''Бог Господь'' и концы тропарей (глас 1)
15. ''Бог Господь'' и концы тропарей (глас 2)
16. ''Бог Господь'' и концы тропарей (глас 3)
17. ''Бог Господь'' и концы тропарей (глас 4)
18. ''Бог Господь'' и концы тропарей (глас 5)
19. ''Бог Господь'' и концы тропарей (глас 6)
20. ''Бог Господь'' и концы тропарей (глас 7)
21. ''Бог Господь'' и концы тропарей (глас 8)
22. Кафизма 2-я - 1-я слава
23. Кафизма 2-я - 2-я слава
24. Кафизма 2-я - 3-я слава
Логи проверки качества
Лог fooCDtect
[pre]
fooCDtect - foobar2000 + auCDtect, baralgin.

auCDtect: CD records authenticity detector, version 0.8.2
Copyright (c) 2004 Oleg Berngardt. All rights reserved.
Copyright (c) 2004 Alexander Djourik. All rights reserved.

mode: 0

===========================================
Track: С.Пичугин - Песнопения Обихода, часть 1

Processing file: [С.Пичугин - Песнопения Обихода, часть 1.aucdtect]
Detected average hi-boundary frequency: 1.939757e+004 Hz
Detected average lo-boundary frequency: 1.413104e+004 Hz
Detected average hi-cut frequency: 1.854667e+004 Hz
Detected average lo-cut frequency: 1.198687e+004 Hz
Maximum probablis boundary frequency: 2.189100e+004 Hz
Coefficient of nonlinearity of a phase: 9.342599e-003
First order smothness: 5.643710e-001
Second order smothness: 5.886928e-001

------------------------------------------------------------
This track looks like MPEG with probability 90%

===========================================[/pre]
Лог Dynamic Range Meter
[pre]
foobar2000 1.5.5 / Dynamic Range Meter 1.1.1
log date: 2020-11-30 17:13:02

--------------------------------------------------------------------------------
Statistics for: ?-Песнопения Обихода, часть 1
Number of samples: 178075800
Duration: 1:07:18
--------------------------------------------------------------------------------

Left Right

Peak Value: -0.49 dB --- -0.44 dB
Avg RMS: -12.03 dB --- -12.07 dB
DR channel: 8.56 dB --- 8.66 dB
--------------------------------------------------------------------------------

Official DR Value: DR9

Samplerate: 44100 Hz
Channels: 2
Bits per sample: 16
Bitrate: 510 kbps
Codec: FLAC
================================================================================[/pre]
fooCDtect pic
DR Meter pic
Spectrogram auCDtect TM pic
CD 08 "Песнопения Обихода, часть 2" - 01:19:40
pic
Треклист:
Утреня (окончание)
01. Кафизма 3-я - 1-я слава
02. Кафизма 3-я - 2-я слава
03. Кафизма 3-я - 3-я слава
04. Кафизма 17-я - 1-я слава
05. Кафизма 17-я - 2-я слава
06. Кафизма 17-я - 3-я слава
07. Тропари
08. Полиелеос
09. От юности моея
10. Воскресение Христово (глас 7, рижский напев)
11. Воскрес Исус (глас 6, рижский напев)
12. Хвалим, благословим (на 8 гласов, рижский напев)
13. Песнь Пресвятой Богородицы
14. Свят Господь Бог наш (на 8 гласов)
15. Псалмы хвалитные (рижский напев)
16. Богородичен воскресный на хвалитных стихерах (глас 1)
17. Славословие великое
18. Святый Боже
Логи проверки качества
Лог fooCDtect
[pre]
fooCDtect - foobar2000 + auCDtect, baralgin.

auCDtect: CD records authenticity detector, version 0.8.2
Copyright (c) 2004 Oleg Berngardt. All rights reserved.
Copyright (c) 2004 Alexander Djourik. All rights reserved.

mode: 0

===========================================
Track: С.Пичугин - Песнопения Обихода, часть 2

Processing file: [С.Пичугин - Песнопения Обихода, часть 2.aucdtect]
Detected average hi-boundary frequency: 2.018142e+004 Hz
Detected average lo-boundary frequency: 1.298125e+004 Hz
Detected average hi-cut frequency: 1.963052e+004 Hz
Detected average lo-cut frequency: 1.278388e+004 Hz
Maximum probablis boundary frequency: 2.189100e+004 Hz
Coefficient of nonlinearity of a phase: 6.694989e-002
First order smothness: 4.565805e-001
Second order smothness: 7.259002e-001

------------------------------------------------------------
This track looks like MPEG with probability 100%

===========================================[/pre]
Лог Dynamic Range Meter
[pre]
foobar2000 1.5.5 / Dynamic Range Meter 1.1.1
log date: 2020-11-30 20:20:21

--------------------------------------------------------------------------------
Statistics for: ?-Песнопения Обихода, часть 2
Number of samples: 210796236
Duration: 1:19:40
--------------------------------------------------------------------------------

Left Right

Peak Value: -0.60 dB --- -0.63 dB
Avg RMS: -12.88 dB --- -12.87 dB
DR channel: 9.75 dB --- 9.73 dB
--------------------------------------------------------------------------------

Official DR Value: DR10

Samplerate: 44100 Hz
Channels: 2
Bits per sample: 16
Bitrate: 491 kbps
Codec: FLAC
================================================================================[/pre]
fooCDtect pic
DR Meter pic
Spectrogram auCDtect TM pic
CD 09 "Песнопения Обихода, часть 3 (Октай. Задостойники. Часы)" - 01:01:50
pic
Треклист:
Песнопения часов: Перед блаженной
01. И ныне... Единородный Сын
02. То же (глас 5)
На литургии: Блаженны воскресные (Октай, на 8 гласов)
03. Снеди ради (глас 1)
04. Глас Ти приносим (глас 2)
05. Отвергшуся Христе (глас 3)
06. Древа ради Адамо (глас 4)
07. Разбойник на кресте (глас 5)
08. Помяни мя, Боже (глас 6)
09. Красен бе и добре (глас 7)
10. Помяни нас, Владыко (глас 8)
Перед Евангелием и после Евангелия: Блаженны воскресные
11. Слава Тебе, Господи (большой обеденный распев)
На великие праздники
12. Отче наш (глас 6)
После 33-го псалма
13. Достойно есть (большой распев)
14. То же (малый распев)
Песнопения молебна
15. Всяко дыхание (малый распев)
16. То же, демеством
17. Слава Тебе, Господи
18. Слава. И ныне. Помилуй нас, Боже (обычным и большим распевом)
На молебне: Задостойник (по окончании канона)
19. Владычице
Задостойники, песнь 9. Глас 1
20. Подобаше убо нам
21. То же (рижский напев)
22. Побеждаются естества уставы
23. Светися, светися, новый Иеросалим
24. То же (рижский напев)
25. То же (большой рижский распев)
26. Радуйся, Девственная Похвало
27. О Мати Дево
Задостойники, песнь 9. Глас 2
28. О выше ума
Задостойники, песнь 9. Глас 3
29. В законней сени
Задостойники, песнь 9. Глас 4
30. Радуйся, Царице
31. Рожество Ти нетленно
32. Бог Господь
33. Яко о душевнем
Задостойники, песнь 9. Глас 5
34. Тя паче ума
35. То же (рижский напев)
Задостойники, песнь 9. Глас 6
36. Не рыдай Мене, Мати
Задостойники, песнь 9. Глас 8
37. Чюже есть
38. Снеди ради
39. О Тебе радуется (из древнего Октая)
Логи проверки качества
Лог fooCDtect
[pre]
fooCDtect - foobar2000 + auCDtect, baralgin.

auCDtect: CD records authenticity detector, version 0.8.2
Copyright (c) 2004 Oleg Berngardt. All rights reserved.
Copyright (c) 2004 Alexander Djourik. All rights reserved.

mode: 0

===========================================
Track: С.Пичугин - Песнопения Обихода, часть 3

Processing file: [С.Пичугин - Песнопения Обихода, часть 3.aucdtect]
Detected average hi-boundary frequency: 2.021752e+004 Hz
Detected average lo-boundary frequency: 1.237455e+004 Hz
Detected average hi-cut frequency: 2.013634e+004 Hz
Detected average lo-cut frequency: 9.679352e+003 Hz
Maximum probablis boundary frequency: 2.189100e+004 Hz
Coefficient of nonlinearity of a phase: 6.139922e-002
First order smothness: 3.998297e-001
Second order smothness: 6.953452e-001

------------------------------------------------------------
This track looks like MPEG with probability 92%

===========================================[/pre]
Лог Dynamic Range Meter
[pre]
foobar2000 1.5.5 / Dynamic Range Meter 1.1.1
log date: 2020-11-30 20:33:39

--------------------------------------------------------------------------------
Statistics for: ?-Песнопения Обихода, часть 3
Number of samples: 163580424
Duration: 1:01:49
--------------------------------------------------------------------------------

Left Right

Peak Value: -0.62 dB --- -0.59 dB
Avg RMS: -12.10 dB --- -12.10 dB
DR channel: 8.64 dB --- 8.64 dB
--------------------------------------------------------------------------------

Official DR Value: DR9

Samplerate: 44100 Hz
Channels: 2
Bits per sample: 16
Bitrate: 509 kbps
Codec: FLAC
================================================================================[/pre]
fooCDtect pic
DR Meter pic
Spectrogram auCDtect TM pic
CD 10.1 "Октай (1-4 гласы)" - 01:12:21
pic
Треклист:
Глас 1
01. Богородичен на Господи возвах (догматик) "Всемирную славу"
02. Стихера на стиховне "Страстию Твоею, Христе"
03. Богородичен на стиховне "Се исполнися Исаино проречение"
04. Тропарь воскресный "Камени знаменану"
05. Тропарь богородичный "Гавриилу провещавашу"
06. Ипакой "Разбойниче покаяние"
07. Блаженна "Снеди ради"
08. Евангельская стихера "На гору учеником идущим"
Глас 2
09. Богородичен на Господи возвах (догматик) "Прейде сень законная"
10. Стихера на стиховне "Воскресение Твое, Христе"
11. Богородичен на стиховне "О чюдо новее всех"
12. Тропарь воскресный "Егда сониде ко смерти"
13. Тропарь богородичный "Вся паче смысла"
14. Ипакой "По страсти шедше"
15. Блаженна "Глас Ти приносим"
16. Евангельская стихера "С миром пришедши"
Глас 3
17. Богородичен на Господи возвах (догматик) "Како не дивимся"
18. 1-я стихера на стиховне "Страстию Твоею, Христе"
19. Богородичен на стиховне "Без семени от Божияго Духа"
20. Тропарь воскресный "Да веселятся небесная"
21. Тропарь богородичный "Тебе, Ходатаицу"
22. Ипакой "Удивляя видением"
23. Блаженна "Отвергшуся, Христе"
24. Евангельская стихера "Магдалыни Мария"
Глас 4
25. Богородичен на Господи возвах (догматик) "Иже Тебе ради"
26. 1-я стихера на стиховне "Господи возшед на крест"
27. Богородичен на стиховне "Подай же утешение"
28. Тропарь воскресный "Светлую воскресения проповедь"
29. Тропарь богородичный "Иже от века утаенное"
30. Ипакой "Иже Твоего преславнаго востания"
31. Блаженна "Древа ради Адамо"
32. Евангельская стихера "Утренняя бе рано"
Логи проверки качества
Лог fooCDtect
[pre]
fooCDtect - foobar2000 + auCDtect, baralgin.

auCDtect: CD records authenticity detector, version 0.8.2
Copyright (c) 2004 Oleg Berngardt. All rights reserved.
Copyright (c) 2004 Alexander Djourik. All rights reserved.

mode: 0

===========================================
Track: С.Пичугин - Октай (1-4 гласы)

Processing file: [С.Пичугин - Октай (1-4 гласы).aucdtect]
Detected average hi-boundary frequency: 2.002943e+004 Hz
Detected average lo-boundary frequency: 1.267520e+004 Hz
Detected average hi-cut frequency: 2.191939e+004 Hz
Detected average lo-cut frequency: 1.101197e+004 Hz
Maximum probablis boundary frequency: 2.189100e+004 Hz
Coefficient of nonlinearity of a phase: 2.405186e-001
First order smothness: 3.687330e-001
Second order smothness: 7.388783e-001

------------------------------------------------------------
This track looks like CDDA with probability 100%

===========================================[/pre]
Лог Dynamic Range Meter
[pre]
foobar2000 1.5.5 / Dynamic Range Meter 1.1.1
log date: 2020-11-30 21:09:34

--------------------------------------------------------------------------------
Statistics for: ?-Октай (1-4 гласы)
Number of samples: 191416932
Duration: 1:12:21
--------------------------------------------------------------------------------

Left Right

Peak Value: 0.00 dB --- 0.00 dB
Avg RMS: -13.12 dB --- -13.12 dB
DR channel: 10.73 dB --- 10.73 dB
--------------------------------------------------------------------------------

Official DR Value: DR11

Samplerate: 44100 Hz
Channels: 2
Bits per sample: 16
Bitrate: 384 kbps
Codec: FLAC
================================================================================[/pre]
fooCDtect pic
DR Meter pic
Spectrogram auCDtect TM pic
CD 10.2 "Октай (5-8 гласы)" - 01:21:01
pic
Треклист:
Глас 5
01. Богородичен на Господи возвах (догматик) "Во Черменем мори"
02. 1-я стихера на стиховне "Тебе воплощеннаго"
03. Богородичен на стиховне "Церкви и врата"
04. Тропарь воскресный "Собезначальное Слово"
05. Тропарь богородичный "Радуйся, Двери Господеня"
06. Ипакой "Ангельским зраком"
07. Блаженна "Разбойник на кресте"
08. Евангельская стихера "О премудрых Твоих судеб"
09. Евангельская стихера "Яко последняя времена"
Глас 6
10. Богородичен на стиховне малой вечерни "Чистая, Едина Бога рождшая"
11. 1-я стихера на стиховне "Воскресение Твое, Христе, Спасе"
12. Богородичен на стиховне "Творец и Избавитель"
13. Тропарь воскресный "Ангельския силы"
14. Тропарь богородичный "Иже Благословенную"
15. Ипакой "Воленою и животвореною"
16. Блаженна "Помяни мя, Боже"
17. Евангельская стихера "Воистину мир Ты, Христе"
18. Евангельская стихера "Иже во ад сошествии"
Глас 7
19. Богородичен на Господи возвах (догматик) "Мати убо познася"
20. 1-я стихера на стиховне "Воскресе из гроба"
21. Богородичен на стиховне "Под кров Твой"
22. Тропарь воскресный "Разруши крестоме Своиме"
23. Тропарь богородичный "Яко нашему воскресению"
24. Ипакой "Иже наш зрак"
25. Блаженна "Красен бе и добре"
26. Евангельская стихера "Се тма и рано"
Глас 8
27. Богородичен на Господи возвах (догматик) "Царь небесный"
28. 1-я стихера на стиховне "Псалми и песнеми"
29. Богородичен на стиховне "Безневестная Дево"
30. Тропарь воскресный "С вышних сниде"
31. Тропарь богородичный "Иже нас ради"
32. Ипакой "Мироносица Живодавеному"
33. Блаженна "Помяни нас, Владыко"
34. Евангельская стихера "Мариины слезы"
35. Евангельская стихера "Являяй Себе учеником"
Логи проверки качества
Лог fooCDtect
[pre]
fooCDtect - foobar2000 + auCDtect, baralgin.

auCDtect: CD records authenticity detector, version 0.8.2
Copyright (c) 2004 Oleg Berngardt. All rights reserved.
Copyright (c) 2004 Alexander Djourik. All rights reserved.

mode: 0

===========================================
Track: С.Пичугин - Октай (5-8 гласы)

Processing file: [С.Пичугин - Октай (5-8 гласы).aucdtect]
Detected average hi-boundary frequency: 2.009328e+004 Hz
Detected average lo-boundary frequency: 1.298319e+004 Hz
Detected average hi-cut frequency: 2.190321e+004 Hz
Detected average lo-cut frequency: 1.123155e+004 Hz
Maximum probablis boundary frequency: 2.189100e+004 Hz
Coefficient of nonlinearity of a phase: 1.974872e-001
First order smothness: 3.657856e-001
Second order smothness: 7.380884e-001

------------------------------------------------------------
This track looks like CDDA with probability 100%

===========================================[/pre]
Лог Dynamic Range Meter
[pre]
foobar2000 1.5.5 / Dynamic Range Meter 1.1.1
log date: 2020-11-30 21:21:16

--------------------------------------------------------------------------------
Statistics for: ?-Октай (5-8 гласы)
Number of samples: 214326000
Duration: 1:21:00
--------------------------------------------------------------------------------

Left Right

Peak Value: 0.00 dB --- 0.00 dB
Avg RMS: -12.26 dB --- -12.26 dB
DR channel: 10.11 dB --- 10.11 dB
--------------------------------------------------------------------------------

Official DR Value: DR10

Samplerate: 44100 Hz
Channels: 2
Bits per sample: 16
Bitrate: 388 kbps
Codec: FLAC
================================================================================[/pre]
fooCDtect pic
DR Meter pic
Spectrogram auCDtect TM pic
CD 11 "Рожество Богородицы. Крестовоздвижение" - 00:52:14
pic
pic
Треклист:
Рожество Богородицы
01. Тропарь "Рожество Твое, Богородица", глас 4
02. Кондак "Иоаким и Анна", глас 4
03. Величание (рижский напев)
04. Величание путевое (рижский напев)
05. Стихера по 50-м псалме "Днесь неплодная врата отверзаются", глас 6
Ирмосы 1-го канона, глас 2
06. Песнь 1. Грядите, людие
07. Песнь 3. Утверди нас Собою
08. Песнь 4. Услышах Господи
09. Песнь 5. Яко сень писаного мрака
10. Песнь 6. Ко Господу
11. Песнь 7. Купина во горе
12. Песнь 8. Во пещи отрочестей
13. Песнь 9. Яже прежде солнца
14. Песнь 9. Яже прежде солнца (рижская напевка)
Ирмосы 2-го канона, глас 8
15. Песнь 1. Сокрушешеому брани
16. Песнь 3. Утвердися сердце
17. Песнь 4. Пророк Аввакум
18. Песнь 5. Господи Боже наш
19. Песнь 6. Яко воды морския
20. Песнь 7. Халдеиская пещь
21. Песнь 8. Покрываяй водами
22. Песнь 9. Чуже есть
23. Светилен

Крестовоздвижение
24. Тропарь "Спаси, Господи, люди Своя", глас 1
25. Кондак "Вознесыйся на крест", глас 4
26. Величание (рижский напев)
27. Величание путевое (рижский напев)
28. Стихера по 50-м псалме "Крест Христов", глас 6
Ирмосы, глас 8
29. Песнь 1. Креста начертав (рижский напев)
30. Песнь 3. Жезл во образе тайне
31. Песнь 4. Услышах Господи
32. Песнь 5. О треблаженное древо
33. Песнь 6. Водяну зверю
34. Песнь 7. Безумна заповедь мучителя (рижский напев)
35. Песнь 8. Благословите, дети (рижский напев)
36. Песнь 9. Тайно еси
37. Другий. Снеди ради
38. Светилен
39. На утрене, на целовании Креста, "Кресту Твоему поклоняемся"
Логи проверки качества
Лог fooCDtect
[pre]
fooCDtect - foobar2000 + auCDtect, baralgin.

auCDtect: CD records authenticity detector, version 0.8.2
Copyright (c) 2004 Oleg Berngardt. All rights reserved.
Copyright (c) 2004 Alexander Djourik. All rights reserved.

mode: 0

===========================================
Track: CD 11

Processing file: [CD 11.aucdtect]
Detected average hi-boundary frequency: 2.005082e+004 Hz
Detected average lo-boundary frequency: 1.373138e+004 Hz
Detected average hi-cut frequency: 1.938197e+004 Hz
Detected average lo-cut frequency: 1.309486e+004 Hz
Maximum probablis boundary frequency: 2.189100e+004 Hz
Coefficient of nonlinearity of a phase: 3.505696e-002
First order smothness: 4.922565e-001
Second order smothness: 6.769314e-001

------------------------------------------------------------
This track looks like MPEG with probability 100%

===========================================[/pre]
Лог Dynamic Range Meter
[pre]
foobar2000 1.5.5 / Dynamic Range Meter 1.1.1
log date: 2020-11-29 17:11:06

--------------------------------------------------------------------------------
Statistics for: ?-CD 11
Number of samples: 138140604
Duration: 52:12
--------------------------------------------------------------------------------

Left Right

Peak Value: -0.52 dB --- -0.52 dB
Avg RMS: -11.23 dB --- -11.23 dB
DR channel: 8.03 dB --- 8.03 dB
--------------------------------------------------------------------------------

Official DR Value: DR8

Samplerate: 44100 Hz
Channels: 2
Bits per sample: 16
Bitrate: 282 kbps
Codec: FLAC
================================================================================[/pre]
fooCDtect pic
DR Meter pic
Tau Analyzer - Tracks pic
Spectrogram auCDtect TM pic
CD 12 "Введение в Церковь Богородицы. Рожество Христово" - 01:14:36
pic
pic
Треклист:
Рожество Богородицы
01. Тропарь "Днесь благоволения Божия", глас 4
02. Кондак "Пречистая Церкви Спасова", глас 4
03. Величание (рижский напев)
04. Величание путевое (рижский напев)
05. Стихера по 50-м псалме "Днесь собори верных", глас 6
Ирмосы 1-го канона, глас 4
06. Песнь 1. Отверзу уста моя (рижский напев)
07. Песнь 3. Твоя певцы, Богородице
08. Песнь 4. Неисследному Божию совету
09. Песнь 5. Удивишася всяческая
10. Песнь 6. Божественное се и всечестное
11. Песнь 7. Не послужиша твари
12. Песнь 8. Слыши, Отроковице
13. Припев "Величай, душе моя"
14. Песнь 9. Яко душевнем
Ирмосы 2-го канона, глас 1
15. Песнь 1. Песнь победную
16. Песнь 3. Да утвердися сердце мое
17. Песнь 4. Духом предозеря
18. Песнь 5. Светлый нам воссия
19. Песнь 6. Пророку Ионе
20. Песнь 7. Пещь, Спасе, орошашеся
21. Песнь 8. Егоже ужасаются ангели
22. Припев "Ангели введение Пречистыя зряще"
23. Песнь 9. Светоносный облак
24. Вместо Славы
25. Светилен

Рожество Христово
26. На литии: Стихера, глас 1: Небо и земля днесь
27. Тропарь "Рожество Твое, Христе", глас 4
28. Кондак "Девая днесь", глас 3
29. Величание (рижский напев)
30. Величание путевое
31. По 50-м псалме: Слава... И ныне... Стихера "Всяческая днесь", глас 1
Ирмосы 1-го и 2-го канонов, глас 1
32. Христос раждается
33. Христос раждается (рижский напев)
34. Спасе люди
35. Песнь 3. Первовечному от Отца
36. Песнь 3. Первовечному от Отца (рижский напев)
37. Прииди к пением
38. Песнь 4. Жезл из корене Иесеова
39. Песнь 4. Жезл из корене Иесеова (рижский напев)
40. Рода земена обновление
41. Песнь 5. Бог сый мира
42. Песнь 5. Бог сый мира (рижский напев)
43. Из нощи дело
44. Песнь 6. Утроба Ионы
45. Песнь 6. Утроба Ионы (рижский напев)
46. Пловый Иона
47. Песнь 7. Отроцы во блазей вере
48. Песнь 7. Отроцы во блазей вере (рижский напев)
49. Всех Царя
50. Песнь 8. Чюдо превелие
51. Песнь 8. Чюдо превелие (рижский напев)
52. Утробу неопалиму
53. Припев "Величай, душе моя" (рижский напев)
54. Песнь 9. Таинство странно
55. Песнь 9. Таинство странно (рижский напев)
56. Припев "Величай, душе моя" (рижский напев)
57. Подобаше нам
58. Подобаше нам (рижский напев)
59. Светилен (рижский напев)
Логи проверки качества
Лог fooCDtect
[pre]
fooCDtect - foobar2000 + auCDtect, baralgin.

auCDtect: CD records authenticity detector, version 0.8.2
Copyright (c) 2004 Oleg Berngardt. All rights reserved.
Copyright (c) 2004 Alexander Djourik. All rights reserved.

mode: 0

===========================================
Track: CD 12

Processing file: [CD 12.aucdtect]
Detected average hi-boundary frequency: 1.992433e+004 Hz
Detected average lo-boundary frequency: 1.330066e+004 Hz
Detected average hi-cut frequency: 1.922204e+004 Hz
Detected average lo-cut frequency: 1.135831e+004 Hz
Maximum probablis boundary frequency: 2.189100e+004 Hz
Coefficient of nonlinearity of a phase: 2.981608e-003
First order smothness: 5.151376e-001
Second order smothness: 6.247515e-001

------------------------------------------------------------
This track looks like MPEG with probability 100%

===========================================[/pre]
Лог Dynamic Range Meter
[pre]
foobar2000 1.5.5 / Dynamic Range Meter 1.1.1
log date: 2020-11-29 22:18:59

--------------------------------------------------------------------------------
Statistics for: ?-CD 12
Number of samples: 197306340
Duration: 1:14:34
--------------------------------------------------------------------------------

Left Right

Peak Value: -0.62 dB --- -0.62 dB
Avg RMS: -11.37 dB --- -11.37 dB
DR channel: 8.08 dB --- 8.08 dB
--------------------------------------------------------------------------------

Official DR Value: DR8

Samplerate: 44100 Hz
Channels: 2
Bits per sample: 16
Bitrate: 298 kbps
Codec: FLAC
================================================================================[/pre]
fooCDtect pic
DR Meter pic
Tau Analyzer - Tracks pic
Spectrogram auCDtect TM pic
CD 13 "Богоявление Господне. Сретение Господне" - 00:58:47
pic
pic
Треклист:
Богоявление Господне
01. Тропарь "Во Иордане крещающутися, Господи", глас 1
02. Кондак "Явился еси днесь вселенней", глас 4
03. Величание (рижский напев)
04. Величание путевое
05. По 50-м псалме: Слава... И ныне... "Всяческая днесь", глас 1
06. Стихера по 50-м псалме "Бог Слово явися", глас 6
Ирмосы 1-го канона, глас 2
07. Песнь 1. Глубине открыл
08. Песнь 3. Крепость дая
09. Песнь 4. Услышах Господи
10. Песнь 5. Исус животу начальник
11. Песнь 6. Глас словеси
12. Песнь 7. Юноши верныя
13. Песнь 8. Тайну преславну
14. Песнь 9. Недоумеет всяк язык
15. Песнь 9. Недоумеет всяк язык (другий)
16. Припев "Величай, душе моя" (рижский напев)
17. Другий припев "Величай, душе моя"
18. Песнь 9. О выше ума
Ирмосы 2-го канона, глас 2
19. Песнь 1. Путь морский
20. Песнь 3. Елицы древних
21. Песнь 4. Светом блещася
22. Песнь 5. Врага темна
23. Песнь 6. Истено явствова
24. Песнь 7. Испали водою
25. Песнь 8. Свободна убо тварь
26. Песнь 9. О выше ума

Сретение Господне
27. Тропарь "Радуйся, обрадованная Богородице", глас 1
28. Кондак "Иже утробу Девичю", глас 1
29. Величание (рижский напев)
30. Величание путевое (рижский напев)
31. Стихера по 50-м псалме "Да отверзется днесь дверь небесная", глас 6
Ирмосы, глас 8
32. Песнь 1. Сушу глубородительну
33. Песнь 3. Утвержение на Тя
34. Песнь 4. Покрыла еси небеса
35. Песнь 5. Яко виде Исайя
36. Песнь 6. Возопи ко Тебе
37. Песнь 7. Тебе во пещи
38. Песнь 8. Непостоянени огни
39. Песнь 9. В законней сени
40. Светилен
Логи проверки качества
Лог fooCDtect
[pre]
fooCDtect - foobar2000 + auCDtect, baralgin.

auCDtect: CD records authenticity detector, version 0.8.2
Copyright (c) 2004 Oleg Berngardt. All rights reserved.
Copyright (c) 2004 Alexander Djourik. All rights reserved.

mode: 0

===========================================
Track: CD 13

Processing file: [CD 13.aucdtect]
Detected average hi-boundary frequency: 2.002333e+004 Hz
Detected average lo-boundary frequency: 1.353495e+004 Hz
Detected average hi-cut frequency: 1.925202e+004 Hz
Detected average lo-cut frequency: 1.275212e+004 Hz
Maximum probablis boundary frequency: 2.189100e+004 Hz
Coefficient of nonlinearity of a phase: 6.261158e-003
First order smothness: 5.025246e-001
Second order smothness: 6.688306e-001

------------------------------------------------------------
This track looks like MPEG with probability 100%

===========================================[/pre]
Лог Dynamic Range Meter
[pre]
foobar2000 1.5.5 / Dynamic Range Meter 1.1.1
log date: 2020-11-29 23:32:43

--------------------------------------------------------------------------------
Statistics for: ?-CD 13
Number of samples: 155508948
Duration: 58:46
--------------------------------------------------------------------------------

Left Right

Peak Value: -0.44 dB --- -0.44 dB
Avg RMS: -11.06 dB --- -11.06 dB
DR channel: 7.69 dB --- 7.69 dB
--------------------------------------------------------------------------------

Official DR Value: DR8

Samplerate: 44100 Hz
Channels: 2
Bits per sample: 16
Bitrate: 280 kbps
Codec: FLAC
================================================================================[/pre]
fooCDtect pic
DR Meter pic
Tau Analyzer - Tracks pic
Spectrogram auCDtect TM pic
CD 14 "Благовещение Пресвятыя Богородицы. Вербное воскресенье" - 00:37:49
pic
pic
Треклист:
Благовещение Пресвятыя Богородицы
01. Тропарь "Днесь спасению нашему начаток", глас 4
02. Кондак "Взбранной воеводе", глас 8
03. Величание "Архангельским гласом"
04. Стихера по 50-м псалме "Благовестит Гавриил", глас 2
Ирмосы, глас 4
05. Песнь 1. Отверзу уста моя (рижский напев)
06. Песнь 3. Твоя певцы (рижский напев)
07. Песнь 4. Седяй во славе (рижский напев)
08. Песнь 5. Удивишася всяческая (рижский напев)
09. Песнь 6. Возопил прообразуя
10. Песнь 7. Не послужиша твари
11. Песнь 8. Слыши, Отроковице
12. Припев "Благовествуй, земле, радость велию"
13. Песнь 9. Яко о душевнем
14. Светилен

Вербное воскресенье
15. Тропарь "Общее воскресение", глас 1
16. Тропарь "Спогребшеся Тебе", глас 4
17. Кондак "На престоле на небеси", глас 6
18. Величание (рижский напев)
19. Величание путевое (рижский напев)
20. Стихера по 50-м псалме "Днесь благодать Святаго Духа нас собра", глас 6
Ирмосы, глас 4
21. Песнь 1. Явишася источницы бездны
22. Песнь 3. Точаще несекомыи
23. Песнь 4. Христос приходяй
24. Песнь 5. На Сион гору
25. Песнь 6. Возопиша с веселием
26. Песнь 7. Спасый во огни
27. Песнь 8. Веселися, Иеросалиме
28. Песнь 9. Бог Господь
Логи проверки качества
Лог fooCDtect
[pre]
fooCDtect - foobar2000 + auCDtect, baralgin.

auCDtect: CD records authenticity detector, version 0.8.2
Copyright (c) 2004 Oleg Berngardt. All rights reserved.
Copyright (c) 2004 Alexander Djourik. All rights reserved.

mode: 0

===========================================
Track: CD 14

Processing file: [CD 14.aucdtect]
Detected average hi-boundary frequency: 2.002403e+004 Hz
Detected average lo-boundary frequency: 1.373127e+004 Hz
Detected average hi-cut frequency: 1.926375e+004 Hz
Detected average lo-cut frequency: 1.293808e+004 Hz
Maximum probablis boundary frequency: 2.189100e+004 Hz
Coefficient of nonlinearity of a phase: 2.171271e-002
First order smothness: 5.011531e-001
Second order smothness: 6.636191e-001

------------------------------------------------------------
This track looks like MPEG with probability 99%

===========================================[/pre]
Лог Dynamic Range Meter
[pre]
foobar2000 1.5.5 / Dynamic Range Meter 1.1.1
log date: 2020-11-30 11:08:56

--------------------------------------------------------------------------------
Statistics for: ?-CD 14
Number of samples: 100022916
Duration: 37:48
--------------------------------------------------------------------------------

Left Right

Peak Value: 0.00 dB --- 0.00 dB
Avg RMS: -11.48 dB --- -11.48 dB
DR channel: 7.92 dB --- 7.92 dB
--------------------------------------------------------------------------------

Official DR Value: DR8

Samplerate: 44100 Hz
Channels: 2
Bits per sample: 16
Bitrate: 280 kbps
Codec: FLAC
================================================================================[/pre]
fooCDtect pic
DR Meter pic
Tau Analyzer - Tracks pic
Spectrogram auCDtect TM pic
CD 15 "Вознесение Господне. Святая Троица" - 00:49:35
pic
Треклист:
Вознесение Господне
01. Тропарь "Вознесеся со славою", глас 4
02. Кондак "Еже о нас совершив смотрение", глас 6
03. Величание (рижский напев)
04. Величание путевое (рижский напев)
05. Стихера по 50-м псалме "Днесь на небесех горняя силы", глас 6
Ирмосы, глас 5
06. Песнь 1. Спасителю Богу
07. Песнь 1. Спасителю Богу (рижский напев)
08. Песнь 3. Силою Креста Твоего
09. Песнь 3. Силою Креста Твоего (рижский напев)
10. Песнь 4. Услышах слух силы Креста
11. Песнь 4. Услышах слух силы Креста (рижский напев)
12. Песнь 5. Утренююще вопием
13. Песнь 5. Утренююще вопием (рижский напев)
14. Песнь 6. Обыде мя бездна
15. Песнь 6. Обыде мя бездна (рижский напев)
16. Песнь 7. В пещи огненней
17. Песнь 7. В пещи огненней (рижский напев)
18. Песнь 8. Из Отца прежде век
19. Песнь 8. Из Отца прежде век (рижский напев)
20. Песнь 9. Тя паче ума
21. Песнь 9. Тя паче ума (рижский напев)
22. Светилен

Святая Троица
23. Тропарь "Благословен еси Христе Боже наш", глас 8
24. Величание (рижский напев)
25. Кондак "Егда сшед языки", глас 8
26. Величание путевое (рижский напев)
27. Стихера по 50-м псалме "Царю небесный", глас 6
Ирмосы 1-го канона, глас 7
28. Песнь 1. В понте покры
29. Песнь 3. Свыше силу
30. Песнь 4. Смотряй пророк
31. Песнь 5. Страха ради Твоего
32. Песнь 6. Плавающаго во молве
33. Песнь 7. Иже в пещь огненну
34. Песнь 8. Неопальна огнем
35. Песнь 9. Нетления искушения
Ирмосы 2-го канона, глас 4
36. Песнь 1. Божественноимо покровено
37. Песнь 3. Разверзе утробу
38. Песнь 4. Царь царем
39. Песнь 5. Избавление и очищение
40. Песнь 6. Очищение нам Христе
41. Песнь 7. Согласно устраши
42. Песнь 8. Разрешаете узы
43. Песнь 9. Радуйся, Царице
44. Светилен
45. Светилен другий
Логи проверки качества
Лог fooCDtect
[pre]
fooCDtect - foobar2000 + auCDtect, baralgin.

auCDtect: CD records authenticity detector, version 0.8.2
Copyright (c) 2004 Oleg Berngardt. All rights reserved.
Copyright (c) 2004 Alexander Djourik. All rights reserved.

mode: 0

===========================================
Track: С.Пичугин - Вознесение Господне. Святая Троица

Processing file: [С.Пичугин - Вознесение Господне. Святая Троица.aucdtect]
Detected average hi-boundary frequency: 1.973497e+004 Hz
Detected average lo-boundary frequency: 1.426153e+004 Hz
Detected average hi-cut frequency: 1.898717e+004 Hz
Detected average lo-cut frequency: 1.455884e+004 Hz
Maximum probablis boundary frequency: 2.189100e+004 Hz
Coefficient of nonlinearity of a phase: 9.552550e-003
First order smothness: 5.467325e-001
Second order smothness: 6.690304e-001

------------------------------------------------------------
This track looks like MPEG with probability 100%

===========================================[/pre]
Лог Dynamic Range Meter
[pre]
foobar2000 1.5.5 / Dynamic Range Meter 1.1.1
log date: 2020-11-30 21:31:00

--------------------------------------------------------------------------------
Statistics for: ?-Вознесение Господне. Святая троица
Number of samples: 131146344
Duration: 49:34
--------------------------------------------------------------------------------

Left Right

Peak Value: -0.73 dB --- -0.65 dB
Avg RMS: -12.32 dB --- -12.43 dB
DR channel: 8.72 dB --- 8.96 dB
--------------------------------------------------------------------------------

Official DR Value: DR9

Samplerate: 44100 Hz
Channels: 2
Bits per sample: 16
Bitrate: 523 kbps
Codec: FLAC
================================================================================[/pre]
fooCDtect pic
DR Meter pic
Spectrogram auCDtect TM pic
CD 16 "Преображение Господне. Успение Богородицы" - 00:39:58
pic
Треклист:
Преображение Господне
01. Тропарь "Преобразися на горе Христе Боже", глас 7
02. Кондак "На горе преобразися", глас 7
03. Величание (рижский напев)
04. Величание путевое (рижский напев)
05. По 50-м псалме: Слава... И ныне... Стихера "Всяческая днесь", глас 1
06. Стихера по 50-м псалме "Божества Твоего, Спасе", глас 5
Ирмосы, глас 4
07. Песнь 1. Лицы Израильтестии
08. Песнь 3. Лук сильных
09. Песнь 4. Услышах славное смотрение
10. Песнь 5. От света отогнавый
11. Песнь 6. Внегда скорбех
12. Песнь 7. Аврамстии древле
13. Песнь 8. В Вавилоне отроцы
14. Песнь 9. Рожество Ти нетленно
15. Светилен

Успение Богородицы
16. Тропарь "В рожестве девство сохранила еси", глас 1
17. Кондак "В молитвах неусыпающую Богородицу", глас 2
18. Величание (рижский напев)
19. Величание путевое (рижский напев)
20. Стихера по 50-м псалме "Егда преставление", глас 6
Ирмосы, глас 1
21. Песнь 1. Преукрашена Божиею славою
22. Песнь 3. Содетельная и содержащия вся
23. Песнь 4. Речи пророк и гадания
24. Песнь 5. Божию неизреченную доброту
25. Песнь 6. Морский пучинородный китово
26. Песнь 7. Безстудней яросте
27. Песнь 8. Пламень прохлажая
28. Припев "Величай, душе моя" (рижский напев)
29. Другий припев "Ангели успение Пречистыя зряще"
30. Песнь 9. Побеждаются естества уставы
31. Светилен
Логи проверки качества
Лог fooCDtect
[pre]
fooCDtect - foobar2000 + auCDtect, baralgin.

auCDtect: CD records authenticity detector, version 0.8.2
Copyright (c) 2004 Oleg Berngardt. All rights reserved.
Copyright (c) 2004 Alexander Djourik. All rights reserved.

mode: 0

===========================================
Track: С.Пичугин - Преображение Господне. Успение Богородицы

Processing file: [С.Пичугин - Преображение Господне. Успение Богородицы.aucdtect]
Detected average hi-boundary frequency: 1.977771e+004 Hz
Detected average lo-boundary frequency: 1.431781e+004 Hz
Detected average hi-cut frequency: 1.914583e+004 Hz
Detected average lo-cut frequency: 1.412114e+004 Hz
Maximum probablis boundary frequency: 2.189100e+004 Hz
Coefficient of nonlinearity of a phase: 1.390815e-002
First order smothness: 5.605626e-001
Second order smothness: 6.654913e-001

------------------------------------------------------------
This track looks like MPEG with probability 97%

===========================================[/pre]
Лог Dynamic Range Meter
[pre]
foobar2000 1.5.5 / Dynamic Range Meter 1.1.1
log date: 2020-11-30 21:39:39

--------------------------------------------------------------------------------
Statistics for: ?-Преображение Господне. Успение Богородицы
Number of samples: 105708876
Duration: 39:57
--------------------------------------------------------------------------------

Left Right

Peak Value: -0.40 dB --- -0.40 dB
Avg RMS: -11.57 dB --- -11.58 dB
DR channel: 8.26 dB --- 8.27 dB
--------------------------------------------------------------------------------

Official DR Value: DR8

Samplerate: 44100 Hz
Channels: 2
Bits per sample: 16
Bitrate: 505 kbps
Codec: FLAC
================================================================================[/pre]
fooCDtect pic
DR Meter pic
Spectrogram auCDtect TM pic
CD 17 "Ирмосы, часть 1 (гласы 1-4)" - 01:12:01
pic
Треклист:
Глас 1
01. Песнь 1. Твоя победительная десница
02. Песнь 1. Люты работы
03. Песнь 1. Христос раждается
04. Песнь 3. Едине Соведый
05. Песнь 3. Первовеченому от Отца
06. Песнь 4. Гору Тя
07. Песнь 4. Жезл из корене Иесеова
08. Песнь 5. Просвещей сиянием
09. Песнь 5. Бог сый мира
10. Песнь 6. Обыде мя бездна
11. Песнь 6. Утроба Ионы
12. Песнь 7. Тебе мысленную
13. Песнь 7. Отроцы во блазей вере
14. Песнь 8. В пещи дети Израилевы
15. Песнь 8. Чюдо превелие
16. Песнь 9. Образ чистаго рожества
17. Песнь 9. Таинство странно
Глас 2
18. Песнь 1. Во глубине потопи
19. Песнь 1. Нетрену необычну
20. Песнь 3. На камени
21. Песнь 3. Процвела есть пустыня
22. Песнь 3. Утверди нас с Собою
23. Песнь 3. Лук сокрушися
24. Песнь 4. Пою Тя
25. Песнь 4. Пришествовав от Девы
26. Песнь 4. Услышах Господи глас Твой
27. Песнь 4. Услышах Господи славное смотрение
28. Песнь 5. Ходатай Богу
29. Песнь 5. Угль Исайи
30. Песнь 5. Просвещение во тме
31. Песнь 6. В бездне греховней
32. Песнь 6. Глас глагол
33. Песнь 7. О теле злате
34. Песнь 7. Богопротивно веление
35. Песнь 7. Телу златому
36. Песнь 7. Витии явишася
37. Песнь 7. Да преславное рожество
38. Песнь 8. В пещь огненну
39. Песнь 8. Пещь огненна
40. Песнь 8. О подобии злате
41. Песнь 9. Яже прежде солнца
42. Песнь 9. Безначальна родителя
43. Песнь 9. Недоумеет всяк язык
44. Песнь 9. Весь еси желание
Глас 3
45. Песнь 1. Иже воды древле
46. Песнь 1. Песнь нову воспоем
47. Песнь 3. Иже от несущих
48. Песнь 3. Лук сокрушил еси
49. Песнь 4. Положи к нам
50. Песнь 4. Странно и неизреченно
51. Песнь 5. На земли невидимый
52. Песнь 5. К Тебе утренюю
53. Песнь 5. Яко виде Исайя
54. Песнь 6. Бездна последняя
55. Песнь 6. Селению Иона
56. Песнь 7. Якоже древле
57. Песнь 7. Гордый мучитель
58. Песнь 7. Первие телу златому
59. Песнь 8. Непостоянным огнем
60. Песнь 8. Вещественна огня
61. Песнь 8. Вавилонская пещь
62. Песнь 9. Иже сладкою
63. Песнь 9. Новое чюдо
64. Песнь 9. На Синайстей горе
Глас 4
65. Песнь 1. Моря Чермнаго
66. Песнь 3. Веселится о Тебе
67. Песнь 3. Ни мудростию
68. Песнь 3. Лук сильных
69. Песнь 4. Воздвижена Тя
70. Песнь 4. Неисследному
71. Песнь 4. Седяй во славе
72. Песнь 4. Услышах Боже слух Твой
73. Песнь 5. Ты Господи ми свет
74. Песнь 5. Удивишася всяческая
75. Песнь 5. Нечестивии не узрят
76. Песнь 6. Пожеру Ти
77. Песнь 6. Приидох во глубины
78. Песнь 6. Возопил прообразуя
79. Песнь 7. Во пещи Аврамския
80. Песнь 7. Спасый во огни
81. Песнь 7. Не предай же нас
82. Песнь 8. Руце распростер Даниил
83. Песнь 8. Избавителю всех
84. Песнь 9. Камень нерукосечныя горы
85. Песнь 9. Евва убо недугом
Логи проверки качества
Лог fooCDtect
[pre]
fooCDtect - foobar2000 + auCDtect, baralgin.

auCDtect: CD records authenticity detector, version 0.8.2
Copyright (c) 2004 Oleg Berngardt. All rights reserved.
Copyright (c) 2004 Alexander Djourik. All rights reserved.

mode: 0

===========================================
Track: С.Пичугин - Ирмосы (гласы 1-4)

Processing file: [С.Пичугин - Ирмосы (гласы 1-4).aucdtect]
Detected average hi-boundary frequency: 2.158573e+004 Hz
Detected average lo-boundary frequency: 1.227964e+004 Hz
Detected average hi-cut frequency: 2.198537e+004 Hz
Detected average lo-cut frequency: 2.193896e+004 Hz
Maximum probablis boundary frequency: 2.189100e+004 Hz
Coefficient of nonlinearity of a phase: 6.072273e-001
First order smothness: 3.275695e-001
Second order smothness: 9.981504e-001

------------------------------------------------------------
Could not qualify the source of this track.

===========================================[/pre]
Лог Dynamic Range Meter
[pre]
foobar2000 1.5.5 / Dynamic Range Meter 1.1.1
log date: 2020-11-30 21:46:45

--------------------------------------------------------------------------------
Statistics for: ?-Ирмосы (гласы 1-4)
Number of samples: 190534932
Duration: 1:12:01
--------------------------------------------------------------------------------

Left Right

Peak Value: 0.00 dB --- 0.00 dB
Avg RMS: -14.83 dB --- -14.83 dB
DR channel: 12.25 dB --- 12.25 dB
--------------------------------------------------------------------------------

Official DR Value: DR12

Samplerate: 44100 Hz
Channels: 2
Bits per sample: 16
Bitrate: 357 kbps
Codec: FLAC
================================================================================[/pre]
fooCDtect pic
DR Meter pic
Spectrogram auCDtect TM pic
CD 18 "Ирмосы, часть 2 (гласы 5-8)" - 01:02:25
pic
Треклист:
Глас 5
01. Песнь 1. Коня и всадники
02. Песнь 3. Утвержен ни на чем же
03. Песнь 3. Утверди ны, Боже
04. Песнь 4. Божественное Твое разумево
05. Песнь 5. Одеяйся светом
06. Песнь 6. Волнящеся бурею
07. Песнь 7. Превозносимый
08. Песнь 8. Тебе, Вседетелю
09. Песнь 8. Изо Отца
10. Песнь 9. Исайя, ликуй
Глас 6
11. Песнь 1. Яко посуху ходи
12. Песнь 1. Волною морскою
13. Песнь 3. Несте свята
14. Песнь 3. Разширишася на враги
15. Песнь 3. Тебе на водах
16. Песнь 4. Христос мне сила
17. Песнь 4. Еже на кресте
18. Песнь 4. Услышав же пророк
19. Песнь 5. Божиим светом
20. Песнь 5. Восиявый свет
21. Песнь 5. Богоявления Ти, Христе
22. Песнь 6. Житейскаго моря
23. Песнь 6. Ято бысте
24. Песнь 6. Китом пожерто
25. Песнь 7. Хладодавицу убо пещь
26. Песнь 7. Неизреченное чюдо
27. Песнь 8. Ис пламени святым
28. Песнь 8. Ужаснися бояйся небо
29. Песнь 9. Бога человека
30. Песнь 9. Не рыдай Мене, Мати
31. Песнь 9. Приимошия радосте
Глас 7
32. Песнь 1. Манием Ти
33. Песнь 1. Во понте покры
34. Песнь 1. Сокрушешеому брани
35. Песнь 3. В начатце небеса
36. Песнь 3. Совыше силу
37. Песнь 4. Отча недра
38. Песнь 4. Смотряй пророк
39. Песнь 4. Покрыла есть небеса
40. Песнь 5. Нощь несветла
41. Песнь 5. Господи Боже мой
42. Песнь 6. Возопихо Господи
43. Песнь 6. Плавающаго во молве
44. Песнь 6. Во глубину греховную
45. Песнь 7. Иже в пещь огненну
46. Песнь 7. Пеще отроцы огнепалну
47. Песнь 8. Неопална огнем
48. Песнь 8. Отроцы зовяху
49. Песнь 8. Воистину сущаго Бога
50. Песнь 8. Страшнаго херувимоме
51. Песнь 9. Радуйся, Невесто
52. Песнь 9. Нетления искушения
53. Песнь 9. Выше обычая
54. Песнь 9. Мати Богу
Глас 8
55. Песнь 1. Вооружена фараона
56. Песнь 1. Воду прошед
57. Песнь 1. Поимо песне Богу
58. Песнь 3. Утвержеи небеса
59. Песнь 3. Ты еси утвержение
60. Песнь 3. Небесному кругу
61. Песнь 4. Ты ми, Христе, Господь
62. Песнь 4. Услышах Господи
63. Песнь 4. Из горы присененныя
64. Песнь 5. Вскую мя оторину
65. Песнь 5. Просвети нас
66. Песнь 5. Мрако душа моея
67. Песнь 6. Молитву пролию
68. Песнь 6. Очисти мя, Спасе
69. Песнь 6. Одержима мя приими
70. Песнь 7. Божия сохождения
71. Песнь 7. Иже от Иудеи
72. Песнь 8. Седмь седмицею пещь
73. Песнь 8. Победители врагу
74. Песнь 8. Проявленнаго на горе
75. Песнь 9. Воистину Богородицу
76. Песнь 9. Удивися убо
77. Песнь 9. Устрашися всяк слух
Логи проверки качества
Лог fooCDtect
[pre]
fooCDtect - foobar2000 + auCDtect, baralgin.

auCDtect: CD records authenticity detector, version 0.8.2
Copyright (c) 2004 Oleg Berngardt. All rights reserved.
Copyright (c) 2004 Alexander Djourik. All rights reserved.

mode: 0

===========================================
Track: С.Пичугин - Ирмосы (гласы 5-8)

Processing file: [С.Пичугин - Ирмосы (гласы 5-8).aucdtect]
Detected average hi-boundary frequency: 2.182874e+004 Hz
Detected average lo-boundary frequency: 1.308870e+004 Hz
Detected average hi-cut frequency: 2.198958e+004 Hz
Detected average lo-cut frequency: 2.196688e+004 Hz
Maximum probablis boundary frequency: 2.189100e+004 Hz
Coefficient of nonlinearity of a phase: 1.086608e+000
First order smothness: 3.637424e-001
Second order smothness: 9.992307e-001

------------------------------------------------------------
Could not qualify the source of this track.

===========================================[/pre]
Лог Dynamic Range Meter
[pre]
foobar2000 1.5.5 / Dynamic Range Meter 1.1.1
log date: 2020-11-30 21:57:32

--------------------------------------------------------------------------------
Statistics for: ?-Ирмосы (гласы 5-8)
Number of samples: 165132744
Duration: 1:02:25
--------------------------------------------------------------------------------

Left Right

Peak Value: 0.00 dB --- 0.00 dB
Avg RMS: -13.23 dB --- -13.23 dB
DR channel: 11.18 dB --- 11.18 dB
--------------------------------------------------------------------------------

Official DR Value: DR11

Samplerate: 44100 Hz
Channels: 2
Bits per sample: 16
Bitrate: 377 kbps
Codec: FLAC
================================================================================[/pre]
fooCDtect pic
DR Meter pic
Spectrogram auCDtect TM pic
CD 19 "Песнопения Великого поста из книги "Обиход"" - 01:20:25
pic
Треклист:
01. Неделя о мытаре и фарисее: Стихера по 50-м псалме "Множество содеянных ми зол", глас 6
02. В неделю блуднаго сына, мясопустную и сыропустную: "На реце вавилонстей"
03. В неделю сыропустную: По 50-м псалме: Слава... И ныне... Стихера "Покаяния отверзи ми двери", глас 8
04. "На спасенныя стези настави"
05. В неделю сырную на вечерне: Прокимен великий "Не отврати лица Твоего", глас 8
06. В неделю 1-ю святаго поста: Другий прокимен "Дал еси достояние", глас 8
07. В понедельник на утрени на 1-м часе: "Заутра услыши глас мой"
08. "Стопы моя направи"
09. "Да исполнятся уста моя"
10. На 9-м часе: "Во царствии си"

На нефимоне поем сии тропари
11. "Господи сил, с нами буди", глас 6
12. "Господи сил, с нами буди" (ин распев)
13. Слава... "Господи, аще не быхом"
14. И ныне... "Многая премножества моих, Богородице"
15. "Все упование мое" (ин развод)

16. Во вся недели Святыя 4-десятницы поем задостойно: "О Тебе радуется", глас 8
17. В неделю 3-ю на утрени на поклонение Кресту поем надгробное: "Святый Боже"
18. На поклонении честнаго Креста: Стихера "Днесь иже неприкосновенный", глас 8
19. В субботу 5-й недели поста на утрени: Тропарь "Повеленное таинство", глас 8
20. В пяток великий на часех, на 1-м часе: "Имошимо Тя беззаконником"
21. На 3-м часе, Слава: "Влеком ко Кресту", глас 5
22. На 6-м часе, Слава: "Законоположницы Израилеви", глас 8
23. На 9-м часе, Слава: "Днесь висит на древе", глас 6

Во Святую и Великую Субботу, на утрени на "Бог Господь" поем сия тропари
24. "Благообразный Иосиф", глас 2
25. Слава. "Егда сниде ко смерти", глас 2
26. И ныне. "Мироносицам женам", глас 2

27. Кондак "Иже бездну затворивый", глас 6
28. В ту же субботу: Стихера на целование плащаницы "Приидете ублажим", глас 5
Логи проверки качества
Лог fooCDtect
[pre]
fooCDtect - foobar2000 + auCDtect, baralgin.

auCDtect: CD records authenticity detector, version 0.8.2
Copyright (c) 2004 Oleg Berngardt. All rights reserved.
Copyright (c) 2004 Alexander Djourik. All rights reserved.

mode: 0

===========================================
Track: С.Пичугин - Песнопения Великого поста из книги Обиход

Processing file: [С.Пичугин - Песнопения Великого поста из книги Обиход.aucdtect]
Detected average hi-boundary frequency: 2.008498e+004 Hz
Detected average lo-boundary frequency: 1.269774e+004 Hz
Detected average hi-cut frequency: 2.185687e+004 Hz
Detected average lo-cut frequency: 1.228215e+004 Hz
Maximum probablis boundary frequency: 2.189100e+004 Hz
Coefficient of nonlinearity of a phase: 2.668574e-001
First order smothness: 3.552697e-001
Second order smothness: 7.689168e-001

------------------------------------------------------------
This track looks like CDDA with probability 100%

===========================================[/pre]
Лог Dynamic Range Meter
[pre]
foobar2000 1.5.5 / Dynamic Range Meter 1.1.1
log date: 2020-11-30 22:05:26

--------------------------------------------------------------------------------
Statistics for: ?-Песнопения Великого поста из книги Обиход
Number of samples: 212743692
Duration: 1:20:24
--------------------------------------------------------------------------------

Left Right

Peak Value: -0.52 dB --- -0.52 dB
Avg RMS: -15.94 dB --- -15.94 dB
DR channel: 12.50 dB --- 12.50 dB
--------------------------------------------------------------------------------

Official DR Value: DR12

Samplerate: 44100 Hz
Channels: 2
Bits per sample: 16
Bitrate: 366 kbps
Codec: FLAC
================================================================================[/pre]
fooCDtect pic
DR Meter pic
Spectrogram auCDtect TM pic
CD 20 "Песнопения Святой Пасхи во Святую и Великую Субботу, на вечерне" - 00:44:54
pic
pic
Треклист:
Ирмосы Боготелесного погребения, глас 6
01. Песнь 1. Волною морскою
02. Песнь 3. Тебе на водах
03. Песнь 4. Еже на Кресте
04. Песнь 5. К Тебе утренюю
05. Песнь 5. Богоявления Ти, Христе
06. Песнь 6. Ято бысте
07. Песнь 7. Неизречененое чюдо
08. Песнь 8. Ужаснися бояйся небо
09. Песнь 9. Не рыдай Мене, Мати

10. Канон Святой Пасхи
11. Стихеры Святой Пасхи
Лог fooCDtect
[pre]
fooCDtect - foobar2000 + auCDtect, baralgin.

auCDtect: CD records authenticity detector, version 0.8.2
Copyright (c) 2004 Oleg Berngardt. All rights reserved.
Copyright (c) 2004 Alexander Djourik. All rights reserved.

mode: 0

===========================================
Track: CD 20

Processing file: [CD 20.aucdtect]
Detected average hi-boundary frequency: 1.926340e+004 Hz
Detected average lo-boundary frequency: 1.393883e+004 Hz
Detected average hi-cut frequency: 1.814305e+004 Hz
Detected average lo-cut frequency: 1.376523e+004 Hz
Maximum probablis boundary frequency: 2.189100e+004 Hz
Coefficient of nonlinearity of a phase: 5.260102e-002
First order smothness: 7.615095e-001
Second order smothness: 6.731694e-001

------------------------------------------------------------
This track looks like MPEG with probability 100%

===========================================[/pre]
Лог Dynamic Range Meter
[pre]
foobar2000 1.5.5 / Dynamic Range Meter 1.1.1
log date: 2020-11-30 15:14:25

--------------------------------------------------------------------------------
Statistics for: ?-CD 20
Number of samples: 118791288
Duration: 44:54
--------------------------------------------------------------------------------

Left Right

Peak Value: -1.85 dB --- -1.85 dB
Avg RMS: -17.02 dB --- -17.02 dB
DR channel: 12.03 dB --- 12.03 dB
--------------------------------------------------------------------------------

Official DR Value: DR12

Samplerate: 44100 Hz
Channels: 2
Bits per sample: 16
Bitrate: 265 kbps
Codec: FLAC
================================================================================[/pre]
fooCDtect pic
DR Meter pic
Tau Analyzer - Tracks pic
Spectrogram auCDtect TM pic
О качестве записей
Качество материала большей части CD этого цикла не оправдывает его хранения в форматах lossless: данные записи (за редким исключением) представляют собой апконверты. Для записей голоса (к тому же в большинстве случаев моно) формата "MP3 CBR 320" более чем достаточно.
О серии
Издательство «Светлояр» (Рига) представляет серию компакт-дисков с записями церковных песнопений старопоморской (наонной) традиции самой древней из ныне существующих на Руси с уникальной системой произношения текста и интонирования. Она уходит своими корнями в напевы Древней Византии. Принесенная греками на Русь в XXI вв. после Крещения, в дальнейшем она развивалась в русле русской церковной жизни вплоть до XVII в., дав ценнейшие образцы духовных песнопений.
Запись мелодии в певческой книге в древности производилась особыми знаками крюками или знаменами (откуда и название).
Это особый, неизвестный многим духовный мир, богатейшее наследие, сохраненное в живом виде в старообрядческих поморских общинах. Главным в этих распевах является не внешняя красота, а особый духовный образ молитвы, на достижение которого должны быть направлены ум и чувства верующих.
Исполнитель песнопений Сергей Петрович Пичугин (р. 1957 г.) головщик (руководитель хора) крупнейшей в мире Рижской Гребенщиковской старообрядческой (поморской) общины (РГСО), хорошо знающий как книжную традицию (пение по знамени), так и живую устную (т. н. рижский напев). Является членом Всероссийского Общества любителей знаменного пения и участником его ежегодных съездов. Под его редакцией вышло несколько певческих книг, в т. ч. первое и единственное в своем роде «Пособие по изучению церковного пения и чтения» (автор Евгений Григорьев), дающее возможность самостоятельно осваивать знаменный распев. 16 диски серии являются звуковым приложением к «Пособию...».
Серия «Знаменные песнопения Древней Руси» будет особенно полезна как для певцов, изучающих распев, так и для причетников-старообрядцев в подготовке к Богослужениям.
Важно!
Данная раздача отличается от сходных релизов в Сети поименованными треками в максимальном качестве для записей в формате mp3 с полностью прописанными тегами. Кроме того, содержание дисков (на сканах "Back") местами грешит лишними треками, неточностями в их названиях, а также (впрочем, редко) в порядке расположения. В тегах всё максимально поправлено (для CD 1–6 – по "Пособию...", для последующих CD – по содержанию треков). Без крайней необходимости теги править не рекомендуется: в них даны полные (порой нигде не дублируемые) названия соответствующих записей, в то время как сами файлы .mp3 поименованы сокращенно. Помимо решения проблемы длинных имён (как известно, длина всего пути ограничена 255 символами) это добавляет удобств при просмотре: слева (в колонке "Имя <файла>") отображается название песнопения, справа (в колонке тегов "Название") – вся информация о месте данного песнопения (с полным его названием) в церковном обиходе (в проводнике можно выбрать колонки для отображения интересующих тегов).
См. примеры для 1-го и 14-го дисков:
pic
pic
Бонусом в раздачу включены означенное выше «Пособие...» и «Азбука крюкового пения, поморского письма» (рукопись РГБ, ф. 173-III-151) в формате pdf.
Поклон etrusk, без раздач которого CD 1-10 и CD 11-20 не было бы этого релиза.
Впрочем, и "Игумен Пафнутий руку приложил": CDs 11-14 и 20 представляют собой AIMP-конвертации собственных рипов.
Download

Войдите на сайт, чтобы увидеть полную информацию.

Как скачивать  ·   Правила трекера


_________________
«…В жизни у меня только одна задача – храм этот оберегать и богатства его приумножать. Каждый кирпичик этого храма, каждая вечная книга, каждая вечная мелодия несут в себе спрессованный опыт человечества, мысли его и мысли о нём…» (~Стругацкие)
[Профиль]  [ЛС] 

arkuchinov@yandex.ru

Стаж: 2 месяца 2 дня

Сообщений: 3

Russia

post 20-Май-2024 17:36 (спустя 3 года 5 месяцев)

[Цитировать] 

Не раздаётся. Не можем скачать. Пожалуйста, поспособствуйте раздаче
[Профиль]  [ЛС] 
Показать сообщения:    
Ответить на тему

Текущее время: 21-Июл 23:26

Часовой пояс: GMT + 4



Вы не можете начинать темы
Вы не можете отвечать на сообщения
Вы не можете редактировать свои сообщения
Вы не можете удалять свои сообщения
Вы не можете голосовать в опросах
Вы не можете прикреплять файлы к сообщениям
Вы не можете скачивать файлы