Loading...
Error

Отец Иоанн (Былинушкина Д.) [2023, WEB-DL 1080p]

Ответить на тему
Статистика раздачи
   
 
Автор Сообщение

Иванов.И.И.

Стаж: 3 года 9 месяцев

Сообщений: 330

Russia

post 07-Янв-2024 16:58

[Цитировать] 

Отец Иоанн

pic
Дата выпуска: 2023
Страна: Россия
Производство: ВГТРК
Автор / режиссёр: Былинушкина Дарья

Жанр: документальный
Перевод: не требуется
Субтитры: нет
Продолжительность: 00:49:41

Описание: Фильм рассказывает о непростом жизненном пути старца Иоанна (Крестьянкина). Рожденный в многодетной семье орловских мещан, Ваня рано потерял отца. В 6 лет начал пономарить в церкви, а в 12 уже укрепился в своей мечте стать монахом. Но желание его исполнилось очень нескоро.

Отец Иоанн родился в Российской Империи, застал мальчишкой Гражданскую войну и революцию, был арестован, пережил пытки в тюрьме Лубянки, трудился на лесоповале в лагере Архангельской области. И всю жизнь молился за спасение своих обидчиков. Тайно во времена гонения на церковь крестил детей, тайно же отпевал родственников членов партии. Восстанавливал храмы Рязанской земли. Когда его называли старцем, отвечал, что старцев давно уж нет и не надо путать старца со стариком.

Съемочная группа побывала в Орле, Рязани, Псково-Печорском и Сретенском монастырях.

В фильме принимают участие священники РПЦ, духовные чада отца Иоанна – все, кто когда-либо соприкасался с этим удивительным Человеком и священником.

Качество: WEB-DL 1080p
Формат: MP4
Видео кодек: AVC
Аудио кодек: AAC
Видео: 1920х1080, 16:9, 25 кадров/с, 5000 кбит/с
Аудио: русский, AAC, 48 кГц, 192 кбит/с, стерео
Медиаинфо
General
Complete name : F:\Отец Иоанн - 2023.mp4
Format : MPEG-4
Codec ID : M4V (isom/avc1/mp42)
File size : 1.80 GiB
Duration : 49 min 41 s
Overall bit rate mode : Variable
Overall bit rate : 5 189 kb/s
Frame rate : 25.000 FPS
Encoded date : 2024-01-05 11:16:31 UTC
Tagged date : 2024-01-05 11:16:31 UTC

Video
ID : 1
Format : AVC
Format/Info : Advanced Video Codec
Format profile : High@L4
Format settings : CABAC / 2 Ref Frames
Format settings, CABAC : Yes
Format settings, Reference : 2 frames
Codec ID : avc1
Codec ID/Info : Advanced Video Coding
Duration : 49 min 41 s
Bit rate mode : Variable
Bit rate : 4 991 kb/s
Maximum bit rate : 8 000 kb/s
Width : 1 920 pixels
Height : 1 080 pixels
Display aspect ratio : 16:9
Frame rate mode : Constant
Frame rate : 25.000 FPS
Color space : YUV
Chroma subsampling : 4:2:0
Bit depth : 8 bits
Scan type : Progressive
Bits/(Pixel*Frame) : 0.096
Stream size : 1.73 GiB (96%)
Encoded date : 2024-01-05 11:16:31 UTC
Tagged date : 2024-01-05 11:16:31 UTC
Codec configuration box : avcC

Audio
ID : 2
Format : AAC LC
Format/Info : Advanced Audio Codec Low Complexity
Codec ID : mp4a-40-2
Duration : 49 min 41 s
Bit rate mode : Variable
Bit rate : 192 kb/s
Maximum bit rate : 197 kb/s
Channel(s) : 2 channels
Channel layout : L R
Sampling rate : 48.0 kHz
Frame rate : 46.875 FPS (1024 SPF)
Compression mode : Lossy
Stream size : 68.2 MiB (4%)
Language : English
Encoded date : 2024-01-05 11:16:32 UTC
Tagged date : 2024-01-05 11:16:32 UTC
Видеокадры
pic pic
Download

Войдите на сайт, чтобы увидеть полную информацию.

Как скачивать  ·   Правила трекера

[Профиль]  [ЛС] 
Показать сообщения:    
Ответить на тему

Текущее время: 22-Июл 00:32

Часовой пояс: GMT + 4



Вы не можете начинать темы
Вы не можете отвечать на сообщения
Вы не можете редактировать свои сообщения
Вы не можете удалять свои сообщения
Вы не можете голосовать в опросах
Вы не можете прикреплять файлы к сообщениям
Вы не можете скачивать файлы