Loading...
Error

Соловки. На страже Русского Севера (Шуванников Владимир) [2022, WEB-DL 1080p]

Ответить на тему
Статистика раздачи
   
 
Автор Сообщение

Иванов.И.И.

Стаж: 3 года 9 месяцев

Сообщений: 330

Russia

post 20-Июн-2023 20:48

[Цитировать] 

Соловки. На страже Русского Севера

pic
Дата выпуска: 2022
Страна: Россия
Производство: Звезда
Автор и режиссёр: Шуванников Владимир

Жанр: документальный
Перевод: не требуется
Субтитры: нет
Продолжительность: 01:15:06

Описание: Фильм о Соловецком монастыре, как о главном духовном и пограничном форпосте Севера России. О подвиге соловецких монахов и поморов при обороне Русского Севера от британской и французской экспансии в период Крымской войны, и об истории создания монастыря и русском освоении Беломорья.

Качество: WEB-DL 1080p
Формат: MP4
Видео кодек: AVC
Аудио кодек: AAC
Видео: 1920х1080, 16:9, 25 кадров/с, 2750 кбит/с
Аудио: русский, AAC, 44 кГц, 128 кбит/с, стерео
Медиаинфо
General
Complete name : C:\Соловки. На страже Русского Севера.mp4
Format : MPEG-4
Format profile : Base Media
Codec ID : isom (isom/iso2/avc1/mp41)
File size : 1.44 GiB
Duration : 1 h 15 min
Overall bit rate mode : Variable
Overall bit rate : 2 745 kb/s
Movie name : Соловки. На страже Русского Севера
Recorded date : 2022:04:24 03:00:00
Writing application : Lavf58.29.100

Video
ID : 1
Format : AVC
Format/Info : Advanced Video Codec
Format profile : High@L4
Format settings : CABAC / 3 Ref Frames
Format settings, CABAC : Yes
Format settings, Reference fra : 3 frames
Codec ID : avc1
Codec ID/Info : Advanced Video Coding
Duration : 1 h 15 min
Bit rate : 2 610 kb/s
Width : 1 920 pixels
Height : 1 080 pixels
Display aspect ratio : 16:9
Frame rate mode : Constant
Frame rate : 25.000 FPS
Color space : YUV
Chroma subsampling : 4:2:0
Bit depth : 8 bits
Scan type : Progressive
Bits/(Pixel*Frame) : 0.050
Stream size : 1.37 GiB (95%)
Writing library : x264 core 155 r2901 7d0ff22
Color range : Limited
Color primaries : BT.709
Transfer characteristics : BT.709
Matrix coefficients : BT.709
Codec configuration box : avcC

Audio
ID : 2
Format : AAC LC
Format/Info : Advanced Audio Codec Low Complexity
Codec ID : mp4a-40-2
Duration : 1 h 15 min
Bit rate mode : Variable
Bit rate : 128 kb/s
Maximum bit rate : 129 kb/s
Channel(s) : 2 channels
Channel layout : L R
Sampling rate : 44.1 kHz
Frame rate : 43.066 FPS (1024 SPF)
Compression mode : Lossy
Stream size : 68.8 MiB (5%)
Default : Yes
Alternate group : 1
Видеокадры
pic pic pic
Download

Войдите на сайт, чтобы увидеть полную информацию.

Как скачивать  ·   Правила трекера



Последний раз редактировалось: Иванов.И.И. (2023-06-22 10:09), всего редактировалось 1 раз
[Профиль]  [ЛС] 

Игорь I

Стаж: 15 лет

Сообщений: 2151

Russia

post 22-Июн-2023 05:02 (спустя 1 день 8 часов)

[Цитировать] 

Благодарю
[Профиль]  [ЛС] 
Показать сообщения:    
Ответить на тему

Текущее время: 19-Июл 07:17

Часовой пояс: GMT + 4



Вы не можете начинать темы
Вы не можете отвечать на сообщения
Вы не можете редактировать свои сообщения
Вы не можете удалять свои сообщения
Вы не можете голосовать в опросах
Вы не можете прикреплять файлы к сообщениям
Вы не можете скачивать файлы