Loading...
Error

Скажи мне, Новгород… (Малюгин Ю.) [2022, WEB-DL 1080p]

Ответить на тему
Статистика раздачи
   
 
Автор Сообщение

Иванов.И.И.

Стаж: 3 года 9 месяцев

Сообщений: 330

Russia

post 23-Фев-2023 21:26

[Цитировать] 

Скажи мне, Новгород…

pic
Дата выпуска: 2022
Страна: Россия
Производство: ВГТРК
Режиссёр: Малюгин Юрий

Жанр: документальный
Перевод: не требуется
Субтитры: нет
Продолжительность: 00:52:00

Описание: "Скажи мне, Новгород, ужель их больше нет? Ужели Волхов твой не Волхов прежних лет?", – эти строки написаны Михаилом Лермонтовым в 1832 году. С тех пор об истории и культурном наследии Новгорода написано множество книг и снято немало фильмов.

В программе рассказывается о наиболее значимых работах по реставрации Софийского собора, о легендах и тайнах, окутавших этот древнейший памятник, о судьбе и подвижнической деятельности художника-реставратора Татьяны Ромашкевич. Трудно найти в новгородских храмах роспись или икону, которых не касались бы ее чуткие руки.

Участвуют: Татьяна Ромашкевич – художник-реставратор; Елена Игнашева – старший научный сотрудник Новгородского музея-заповедника; Татьяна Царевская – хранитель Софийского собора.

Качество: WEB-DL 1080p
Формат: MP4
Видео кодек: AVC
Аудио кодек: AAC
Видео: 1920х1080, 16:9, 25 кадров/с, 5000 кбит/с
Аудио: русский, AAC, 48 кГц, 192 кбит/с, стерео
Медиаинфо
General
Complete name : E:\Скажи мне, Новгород - 2022.mp4
Format : MPEG-4
Codec ID : M4V (isom/avc1/mp42)
File size : 1.88 GiB
Duration : 52 min 0 s
Overall bit rate mode : Variable
Overall bit rate : 5 187 kb/s
Encoded date : UTC 2022-12-30 16:26:00
Tagged date : UTC 2022-12-30 16:26:00

Video
ID : 1
Format : AVC
Format/Info : Advanced Video Codec
Format profile : High@L4
Format settings : CABAC / 2 Ref Frames
Format settings, CABAC : Yes
Format settings, Reference fra : 2 frames
Codec ID : avc1
Codec ID/Info : Advanced Video Coding
Duration : 52 min 0 s
Bit rate mode : Variable
Bit rate : 4 989 kb/s
Maximum bit rate : 8 000 kb/s
Width : 1 920 pixels
Height : 1 080 pixels
Display aspect ratio : 16:9
Frame rate mode : Constant
Frame rate : 25.000 FPS
Color space : YUV
Chroma subsampling : 4:2:0
Bit depth : 8 bits
Scan type : Progressive
Bits/(Pixel*Frame) : 0.096
Stream size : 1.81 GiB (96%)
Encoded date : UTC 2022-12-30 16:26:00
Tagged date : UTC 2022-12-30 16:26:00
Codec configuration box : avcC

Audio
ID : 2
Format : AAC LC
Format/Info : Advanced Audio Codec Low Complexity
Codec ID : mp4a-40-2
Duration : 52 min 0 s
Bit rate mode : Variable
Bit rate : 192 kb/s
Maximum bit rate : 198 kb/s
Channel(s) : 2 channels
Channel layout : L R
Sampling rate : 48.0 kHz
Frame rate : 46.875 FPS (1024 SPF)
Compression mode : Lossy
Stream size : 71.4 MiB (4%)
Encoded date : UTC 2022-12-30 16:26:00
Tagged date : UTC 2022-12-30 16:26:00
Видеокадры
pic pic pic pic
Download

Войдите на сайт, чтобы увидеть полную информацию.

Как скачивать  ·   Правила трекера

[Профиль]  [ЛС] 

Игорь I

Стаж: 15 лет

Сообщений: 2151

Russia

post 25-Фев-2023 06:56 (спустя 1 день 9 часов)

[Цитировать] 

Благодарю
[Профиль]  [ЛС] 
Показать сообщения:    
Ответить на тему

Текущее время: 21-Июл 23:34

Часовой пояс: GMT + 4



Вы не можете начинать темы
Вы не можете отвечать на сообщения
Вы не можете редактировать свои сообщения
Вы не можете удалять свои сообщения
Вы не можете голосовать в опросах
Вы не можете прикреплять файлы к сообщениям
Вы не можете скачивать файлы