Loading...
Error

Любовь и больше, чем любовь (Васильева Ирина) [2011, документальный, WEB-DL]

Ответить на тему
Статистика раздачи
   
 
Автор Сообщение

Иванов.И.И.

Стаж: 3 года 9 месяцев

Сообщений: 330

Russia

post 04-Ноя-2022 15:30

[Цитировать] 

Любовь и больше, чем любовь

pic
Дата выпуска: 2011
Страна: Россия
Производство: студия «Фишка-Фильм», ВГТРК
Автор / режиссёр: Васильева Ирина

Жанр: документальный
Перевод: не требуется
Субтитры: нет
Продолжительность: 00:51:47

Описание: Крупный математик и биофизик Виталий Крюков из подмосковного наукограда Пущино таинственно исчез из мирской жизни. После громких международных симпозиумов – десять лет научного молчания и молитвы в Свято-Даниловом монастыре.

Потом он вернулся в науку – уже не Виталием Крюковым, а игуменом Феофаном. С благословения монастырского начальства в его келье установили необходимое оборудование, интернет. И, главное, иногда его отпускают из монастыря – тогда он идет в лес, скит, где думает и сосредотачивается.

Этот фильм был бы невозможен, если бы его инициатором не был отец Дионисий Крюков, сын игумена Феофана. Это он умолил игумена Феофана принять телевизионную группу в его лесном скиту, а позже добился согласия на фильм и благословения церковного начальства.

Качество: WEB-DL
Формат: MP4
Видео кодек: AVC
Аудио кодек: AAC
Видео: 704х528, 16:9, 25 кадров/с, 800 кбит/с
Аудио: русский, AAC, 48 кГц, 96 кбит/с, стерео
Медиаинфо
General
Complete name : C:\D\Любовь и больше, чем любовь - 2017.mp4
Format : MPEG-4
Codec ID : M4V (isom/avc1/mp42)
File size : 333 MiB
Duration : 51 min 47 s
Overall bit rate mode : Variable
Overall bit rate : 899 kb/s
Encoded date : UTC 2017-09-13 14:58:04
Tagged date : UTC 2017-09-13 14:58:04

Video
ID : 1
Format : AVC
Format/Info : Advanced Video Codec
Format profile : Main@L3.1
Format settings : CABAC / 2 Ref Frames
Format settings, CABAC : Yes
Format settings, Reference fra : 2 frames
Codec ID : avc1
Codec ID/Info : Advanced Video Coding
Duration : 51 min 47 s
Bit rate mode : Variable
Bit rate : 800 kb/s
Maximum bit rate : 1 200 kb/s
Width : 704 pixels
Height : 528 pixels
Display aspect ratio : 4:3
Frame rate mode : Constant
Frame rate : 25.000 FPS
Color space : YUV
Chroma subsampling : 4:2:0
Bit depth : 8 bits
Scan type : Progressive
Bits/(Pixel*Frame) : 0.086
Stream size : 296 MiB (89%)
Encoded date : UTC 2017-09-13 14:58:04
Tagged date : UTC 2017-09-13 14:58:04
Codec configuration box : avcC

Audio
ID : 2
Format : AAC LC
Format/Info : Advanced Audio Codec Low Complexity
Codec ID : mp4a-40-2
Duration : 51 min 47 s
Bit rate mode : Variable
Bit rate : 96.0 kb/s
Maximum bit rate : 94.4 kb/s
Channel(s) : 2 channels
Channel layout : L R
Sampling rate : 48.0 kHz
Frame rate : 46.875 FPS (1024 SPF)
Compression mode : Lossy
Stream size : 34.6 MiB (10%)
Encoded date : UTC 2017-09-13 14:58:04
Tagged date : UTC 2017-09-13 14:58:04
Видеокадры
pic pic pic pic
Download

Войдите на сайт, чтобы увидеть полную информацию.

Как скачивать  ·   Правила трекера

[Профиль]  [ЛС] 

Ard

Стаж: 14 лет

Сообщений: 271

Russia

post 01-Дек-2022 19:31 (спустя 27 дней)

[Цитировать] 

Фильм не смотрел, но название неправильное. Больше Любви нет ничего. Бог есть Любовь. Если в названии такая ошибка, то лично я фильм смотреть не буду.

_________________
Василий Великий: «Кто смотрит на зло без отвращения, тот скоро будет смотреть на него с удовольствием".
[Профиль]  [ЛС] 
Показать сообщения:    
Ответить на тему

Текущее время: 20-Июл 05:49

Часовой пояс: GMT + 4



Вы не можете начинать темы
Вы не можете отвечать на сообщения
Вы не можете редактировать свои сообщения
Вы не можете удалять свои сообщения
Вы не можете голосовать в опросах
Вы не можете прикреплять файлы к сообщениям
Вы не можете скачивать файлы