Loading...
Error

(Церковная музыка и церковные хоры (lossless).) "Радуйся, Царице Неба и земли". Хор сестер Ново - Тихвинского монастыря. Екатеринбург. - 2008, APE (image + .cue), lossless

Ответить на тему
Статистика раздачи
   
 
Автор Сообщение

СЕРГУЛЕТ

Стаж: 12 лет

Сообщений: 2637

Откуда: LA ROMANA

Dominicanrep

post 25-Апр-2011 11:20

[Цитировать] 

"Радуйся, Царице Неба и земли". Хор сестер Ново - Тихвинского монастыря. Екатеринбург.

pic
Страна: Россия. Ново - Тихвинский монастырь.
Жанр: Церковная музыка и церковные хоры (lossless).
Год выпуска: 2008
Формат: APE (image + .cue)
Битрейт аудио: lossless
Продолжительность: 01:17:59
Содержание+ Обложки
picpic
EAC log
Exact Audio Copy V1.0 beta 1 from 15. November 2010

Отчёт EAC об извлечении, выполненном 23. апреля 2011, 15:22

Хор Ново-Тихвинского монастыря / Радуйся Царице неба и земли

Дисковод: HL-DT-STDVDRAM GE20NU10 Adapter: 5 ID: 0

Режим чтения : Достоверность
Использование точного потока : Да
Отключение кэша аудио : Да
Использование указателей C2 : Нет

Коррекция смещения при чтении : 667
Способность читать области Lead-in и Lead-out : Нет
Заполнение пропущенных сэмплов тишиной : Да
Удаление блоков с тишиной в начале и конце : Нет
При вычислениях CRC использовались нулевые сэмплы : Да
Интерфейс : Встроенный Win32-интерфейс для Win NT/2000

Выходной формат : Внутренние WAV-операции
Формат сэмплов : 44.100 Гц; 16 бит; стерео

TOC извлечённого CD

Трек | Старт | Длительность | Начальный сектор | Конечный сектор
---------------------------------------------------------------------
1 | 0:00.00 | 1:41.52 | 0 | 7626
2 | 1:41.52 | 2:12.39 | 7627 | 17565
3 | 3:54.16 | 7:34.06 | 17566 | 51621
4 | 11:28.22 | 1:37.45 | 51622 | 58941
5 | 13:05.67 | 2:02.74 | 58942 | 68165
6 | 15:08.66 | 1:19.69 | 68166 | 74159
7 | 16:28.60 | 43:49.60 | 74160 | 271394
8 | 60:18.45 | 5:22.43 | 271395 | 295587
9 | 65:41.13 | 1:28.40 | 295588 | 302227
10 | 67:09.53 | 0:43.17 | 302228 | 305469
11 | 67:52.70 | 2:57.71 | 305470 | 318815
12 | 70:50.66 | 4:08.07 | 318816 | 337422
13 | 74:58.73 | 1:30.46 | 337423 | 344218
14 | 76:29.44 | 1:30.08 | 344219 | 350976

Характеристики диапазона извлечения и сообщения об ошибках

Выбранный диапазон

Имя файла C:\Users\Ирина\Desktop\Хор Ново-Тихвинского монастыря - Радуйся Царице неба и земли.wav

Пиковый уровень 97.6 %
Скорость извлечения 0.1 X
Качество диапазона 100.0 %
CRC копии C7BA23B9
Копирование... OK

Ошибок не произошло

Конец отчёта
Download

Войдите на сайт, чтобы увидеть полную информацию.

Как скачивать  ·   Правила трекера

[Профиль]  [ЛС] 

+Сергей+

Стаж: 11 лет

Сообщений: 225

Откуда: Москва

Russia

post 09-Май-2011 11:33 (спустя 14 дней)

[Цитировать] 

Спасибо.
[Профиль]  [ЛС] 

kusnezz

Стаж: 12 лет

Сообщений: 5

post 10-Май-2011 08:10 (спустя 20 часов)

[Цитировать] 

Спаси Господи!
[Профиль]  [ЛС] 

Владимир Лухов

Стаж: 11 лет

Сообщений: 110

Откуда: Саратов

Russia

post 11-Май-2011 19:59 (спустя 1 день 11 часов)

[Цитировать] 

Благодарю.

_________________
С уважением. Владимир.
[Профиль]  [ЛС] 

ariel

Стаж: 1 месяц 4 дня

Сообщений: 2

Russia

post 20-Дек-2021 15:15 (спустя 10 лет)

[Цитировать] 

Огромное спасибо за этот альбом сестер. Хотелось бы всю их дискографию в losless
[Профиль]  [ЛС] 
Показать сообщения:    
Ответить на тему

Текущее время: 24-Янв 07:07

Часовой пояс: GMT + 4



Вы не можете начинать темы
Вы не можете отвечать на сообщения
Вы не можете редактировать свои сообщения
Вы не можете удалять свои сообщения
Вы не можете голосовать в опросах
Вы не можете прикреплять файлы к сообщениям
Вы не можете скачивать файлы